&title=メクルメ
&artist=篠澤 広/フロクロ
&first=-1.43
&des=D
&lv_5=13
&inote_5=(160)
{1},
{8}E5,,C,,E1,,2q7[32:5]/6q3[32:5],,,,E3/E7,,{12}A6,A3,E6,{8}E4,,
{8}E5,,C,,E1,,2z6[32:5]/7s3[32:5],,,,E6/E4,,{12}E3,E7,D2,{8}D8,,
{8}E1,,C,,{12}E5,,3v2[12:2]/7,{8}3/7v6[12:1],,,,{12}2-8[12:1],,6,6-4[12:1],,3,3-7[32:3],,,
6,,6,8,8,5,5h[4:1],,,D3,E4,D5,1,1,4,4-1[8:1],,,8>7b[4:1],,,,,,
{16}2bh[4:1],,,,8,,3/7-4[8:1],,,,7,,3,,2/5-8[8:1],,2h[4:1]/5,,,,,,3<8[16:3],,,,,,2,,3,,
1h[4:1],,,,3,,7/4-7[8:1],,,,4,,8h[4:1],,5-1[8:1],,,,,,7v4[8:1],,7pp1b[32:5],,,,,,,,5b,,
6bh[4:1],,,,4,,64,,2,4h[8:1],,3,,35,35,,6,5,6,4,5,4,7,7,,3,3h[16:3],,,5,2,5,
2,,6,,34,,1,,2,8,,57,,6,1-7[8:1],8,3x-1[8:1],,1x,,3x,,6,6h[16:3],,,E3,,E4,,7b,,
8bh[4:1],,,,2,,82,,7,5h[8:1],,6,,64,64,,3,4,3,5,4,5,2,2h[8:1],,6,6-1[8:1],,3,,4,,
{8}5x^2[8:1],7,6,5x-8[8:1],1-4[8:1],5,1,7,3b,5bqq4[8:1],4b<2[4:1],2b,,,,3,
3h[4:1],2,4h[4:1],5,3h[4:1],2,5h[4:1],7,4,6q4[16:3],3,5,,1,2,3,
4h[4:1],3,5h[4:1],6,4h[4:1],3,6h[4:1],7,5,8q6[16:3],4,2,,2,3,4,
7h[4:1],6,3h[4:1],4,6h[4:1],5,2h[4:1],4,5,3pp5[16:3],6,4,,8,7,6,
1x/5x,2-5[8:1],,2x/7x,1-6[8:1],,1x/5x,4-7[8:1],,1x/4x,2,3,4h[8:1],5h[8:1],6h[8:1],7h[8:1],
8b^3[8:1],6,7,8,4-2[8:1],1-5[8:1],4,1,8x^3[8:1],6,7,8,5-2[8:1],1-6[8:1],5,1,
8x^3[8:1],5,6,7,5-1[8:1],8-6[8:1],5,8,2xbh,3h[4:1],D6,D7,3,{16}7,4,6,,{8}2,
1x^4[8:1],5,6,7,4-1[8:1],8-5[8:1],4,8,2x^5[8:1],6,7,8,5-2[8:1],1-6[8:1],5,1,
3x^6[8:1],,38,1x^6[8:1],,14,3,2x-6[8:1],,2,5,7,1x-4b[8:1],,1x,8b,
1b^6[8:1],3,2,1,5-7[8:1],8-4[8:1],5,8,1x^6[8:1],3,2,1,4-7[8:1],8-3[8:1],4,8,
1x^6[8:1],4,3,2,4-8[8:1],1-3[8:1],4,1,7xbh,6h[4:1],D4,D3,6,{16}2,5,3,,{8}7,
8x,2-8[8:1],7-5[8:1],2,7x-3[8:1],8x-4[8:1],7,8,5,3x^6[8:1],6qq3[16:5],8x,,7,7h[4:1],,
3x^6[8:1],2,8,1x^6[8:1],,1/4,3,2x-5[8:1],,6,7,8,1z5[4:1],2,3qq6[2:3],,
{4},,,,,,
8h[4:5],,5,,6h[4:3],{8},7h[8:3],,,,,
{4}4h[4:5],,7,,6h[4:3],{8},5h[8:3],,,,56,
{4}7h[4:5],,3,,2h[4:3],{8},8h[8:3],,,,,
1h[4:3],,,3,3h[4:1],,,,2h[8:1],3h[8:1],4h[8:1],5h[8:1],
1-4[8:1],,15,,
{16}6h[16:23],,E5,E4,,,A5,A4,,,E5,E4,,,D5,D4,,,E5,E4,,,A4,A3,,,B4,B3,7,,,,
56,,3,4,3,,2,1,2,,3,4,3,,2,1,2,1,,3,4,,4,,2^4[32:3],2,,,6,,,,
57,,2,4,2,,3,1,3,,2,4,2,,3,1,3,1,,2,4,,4,,3-5[32:3],3,,,6,,,,
47,,3,5,3,,2,8,2,,3,5,3,,2,8,2,8,,3,5,,5,,1,1^4[8:1],,,6,,,,
37,,2,5,2,,3,8,3,,2,5,2,,3,8,3,8,,2,5,,5,,8-4[8:1],8,,,6,,,,
37,,4,6,4,,1,7,1,,4,6,4,,1,7,1,7,,4,6,,6,,2-5[8:1],2,,,6,,,,
47,,5,6,5,,8,7,8,,5,6,5,,8,7,8,7,,5,6,,6,,4-7[8:1],4,,,6,,,,
5/1h[8:11],,E5,E6,,,A4,A5,,,E5,E6,,,D5,D6,,,B6,,,,A6,,1-4[8:1],1,,,{4}6,E5,,E5,,
{8}3b/A5f,6b/B4f,2b/B6f,8,,17,26,53,
4b^7[8:1],1,2,3,4-2[8:1],1-5[8:1],4,1,8x^3[8:1],5,6,7,8-6[8:1],5-1[8:1],8,5,
4x^7[8:1],1,2,3,4-1[8:1],8-5[8:1],4,8,3qq6[16:5],5,5,,6,7,7,4,
5x^8[8:1],1,2,3,8-5[8:1],4-1[8:1],8,4,6x^1[8:1],2,3,4,1-6[8:1],5-2[8:1],1,5,
7x^2[8:1],,74,5x^2[8:1],,58,7,1x-5[8:1]/6,,1,7,8,1x^6b[8:1],,1x,4b,
5b^2[8:1],8,7,6,5-7[8:1],8-4[8:1],5,8,1x^6[8:1],4,3,2,1-3[8:1],4-8[8:1],1,4,
5x^2[8:1],8,7,6,5-8[8:1],1-4[8:1],5,1,6bpp3[16:5],4,4,,3,2,2,5,
4x,6^4[8:1],1^3[8:1],6,1x^7[8:1],4xq8[8:1],1,4,2,7x^2[8:1],2qq7[16:5],4x,,3,3h[4:1],,
7x^2[8:1],6,4,5x^2[8:1],,5/8,7,6x-1[8:1],,2,3,4pp5[32:5],5b>7[4:1],4b,7b,,
6-4[8:1],,2-5[8:1],3,6-4[8:1],,1-5[8:1],2,7-3[8:1],,7/8>4[4:1],,4^7[32:5],6,8,,
8-4[8:1],,2-6[8:1],1,8-4[8:1],,3-5[8:1],2,7-4[8:1],,2-6[8:1],1,5qq8[16:5],,{16}1>7[2:3],1,1,1,
{4}1h[1:2],
