&title=nightbird
&artist=削除
&first=0
&des=honoria
&lv_5=14
&inote_5=(155)
{1},
{16},,,,,,,,,,,,,,,,
{16}1h[4:1],,,,7,,7h[4:1],,,,3,,3h[4:1],,,,
{16}5,,5h[4:1],,,,4,,4^1[8:1],,,,
{16}6h[4:1],,,,8,,8h[4:1],,,,4,,4h[4:1],,,,
{16}5,,5h[4:1],,,,6,,6,5,7,4,
{16}8h[4:1],,,,2,,2h[4:1],,,,6,,6h[4:1],,,,
{16}4,,4h[4:1],,,,5,,5^8[8:1],,,,
{16}3h[4:1],,,,1,,1h[4:1],,,,5,,5h[4:1],,,,
{16}7,,7h[4:1],,,,4,,4q5[4:7],3,5,6,
{16},,,,,,,,,,,,,,,,
{16},,,,,,,,,,,,,,,,
{16}5p4[2:3]/6pp3[2:3],,,,,,,,,,,,,,,,
{16},,,,,,,,,,,,,,,,
{16}2h[8:5]/4<8[8:3],,,,,,,,,,,,,,7h[8:5]/5>1[8:3],,
{16},,,,,,,,,,,,1,8,1,8,
{16}2bq3[4:5]/7bp6[4:5],,,,,,,,,,,,,,,,
{16},,,,,,,,,,,6,4,5,3,,
{16}2-5[8:1]/6,,,,7,,7-3[8:1],,4,,4h[4:1],,,,5^8[8:1],,,,2^5[8:1],,,,7,,
{16}7-3[8:1],,,,2,,2,,5,5,4^1[8:1],,,,6^1[8:1],,,,2,,,,8,,
{16}7-4[8:1]/3,,,,2,,2-6[8:1],,5,,5h[4:1],,,,4^1[8:1],,,,7^4[8:1],,,,2,,
{16}2-6[8:1],,,,7,,7,,4,4,5,,3b,4,3,,25,,6b,5,6,,47,,
{16}2-5[8:1]/1,,,,6,,7-4[8:1],,4-8[8:1],,3,,,,2^5[8:1],,,,7^2[8:1],,,,4,,
{16}4-1[8:1],,,,8,,8,,6,6,2-7[8:1],,,,5-2[8:1]*-8[8:1],,,,5,,,,8,,
{16}7-4[8:1]/1,,,,3,,2-5[8:1],,5-1[8:1],,6,,,,7^4[8:1],,,,2^7[8:1],,,,5,,
{16}5-8[8:1],,,,1,,1,,3,3,7,,2b,4,3,,15,,7b,5,6,,48,,
{16}2x/6x,,{24}4,5,3,{16}4,,{16}1x/2x,,2,4,3,5,4x,,3x/7x,,{24}5,4,6,{16}5,,
{16}7x/8x,,6,5,{12}7,7,7,{16}3x,,{24}2,8,2,{16}8,,3x/7x,,7,5,6,4,
{16}5xpp4>5[4:6],,,,1,,1h[8:13],,,,,,,,,,
{16},,,,,,,,,,,,,,E5,C,
{16}E1,,,,,,,,,,,,,,3x-1v7[8:3]/4x,,
{16}3x/4xV28[4:1],,,,,,,,,,,,7,8,6,1,
{16}2x^8[8:1]/5x^8[8:1],,,,2^5[8:1]/5,,,,27,,7-3[8:1],,,,4h[4:1],,
{16},,2pp8[3:1],,8,,6h[4:1],,,,,,7,7,1,,
{16}2^4[8:1]/6^1[8:1],,,,6/2q6[8:1],,,,28,,8^5[8:1],,,,4h[4:1],,
{16},,3qq7[3:1],,1,,7,,,,6,,6,,5,,
{16}4-8[8:1]/7-5[8:1],,,,47,,,,1-3[8:1],,4-8[8:1],,1,,4,,
{16},,12,,83,,74,,6^3[8:1],5,7,5,6,,,,
{16}1-3[8:1]/4-8[8:1],,,,14,,,,4-8[8:1],,7-5[8:1],,4,,7,,
{16}2b,2,4,,15,,7b,7,5,,48,,2,1,3,8,
{16}7x^1[8:1]/4x^1[8:1],,,,7^4[8:1]/4,,,,72,,2-6[8:1],,,,5h[4:1],,
{16},,7qq1[3:1],,1,,3h[4:1],,,,,,2,2,8,,
{16}7^5[8:1]/3^8[8:1],,,,3/7p3[8:1],,,,71,,1^4[8:1],,,,5h[4:1],,
{16},,6pp5[4:1],,8,,2h[4:1],,,,,,2,4,3,4,
{16}1-5[8:1],,5-1[8:1],,6,,7-4[8:1],,,,78,,1,,2-5[8:1]/5,,
{16},,12,,8,,3/7-3[8:1],,,,1^4[8:1]/7^4[8:1],,2,,17,,
{16},,5,,37,,,,3b,4,3,,12,,37,,
{16}6b,5,6,,78,,26,,3,4,2,5,1>7[4:6],6,8,7,
{16},,,,,,,,,,,,,,,,
{16},,,,,,,,,,,,
{16}4qq2-4^5b[4:5]*-6v4^5[4:5],,,,,,,,,,,,,,,,
{16},,,,,,,,,,,,
{16}4qq2-4^5b[4:5]*-6^7v4^5[4:5],,,,,,,,,,,,,,,,
{16},,,,,,,,,,,,
{16}4qq2-4^5b[4:5]*-6^8-4^5[4:5],,,,,,,,,,,,,,,,
{16},,,,,,,,,,,,
{16}3xq6[4:3]/8x,,,,8,,,,8,,,,8,,,,
{16}8h[4:1],,,,7h[4:1],,,,6h[4:1],,,,5,,,,
{16}4x/7xq2[4:3],,,,4,,,,4,,,,4,,,,
{16}4^1[8:1],,,,7^4[8:1],,,,2^7[8:1],,,,5,,,,
{16}6xqq6[2:1]/1x,,,,1,,,,1,,,,1-4[8:1],,2x,,
{16}6h[4:1],,,,5h[4:1],,,,4h[4:1],,,,3,,,,
{16}5x/2xqq2[2:1],,,,5,,,,5,,,,5^8[8:1],,6x,,
{16}2^5[8:1],,,,7-3[8:1],,,,1w5b[8:1],,,,,,,,
{16}3xqq7[2:1]/4xh[8:1],,,,4h[8:1],,,,4h[8:1],,,,4h[8:1],,,,
{16}8^3[8:1]/5h[8:1],,,,7h[8:1],,,,1^6[8:1]/4h[8:1],,,,2h[8:1],,,,
{16}1qq3[2:1]/4h[8:1],,,,4h[8:1],,,,4h[8:1],,,,4h[8:1],,,,
{16}3h[8:1]/5h[8:1],,,,2h[8:1]/6h[8:1],,,,1-3[8:1]*-4[8:1]/7h[8:1],,,,,,,,
{16}6pp2[2:1]/5h[8:1],,,,5h[8:1],,,,5h[8:1],,,,5h[8:1],,,,
{16}1^6[8:1]/4h[8:1],,,,2h[8:1],,,,8^3[8:1]/5h[8:1],,,,7h[8:1],,,,
{16}1b-5b[8:6]/4xb,,,,,,,,,,,,,,,,
{16}1s5[4:1],,,,,,,,,,6,2,7x-4[8:1]/3x-8[8:1],,,,
{16}7b/3b^6[8:1],,,,1h[4:1],,,,7,8,6-2[8:1],1,,,6/5-8[8:1],,
{16},,51,,1^6[8:1],,,,21,,3,,8-4[8:1],2,1,,
{16}3-6[8:1]/8,,,,5h[4:1],,,,7,6,8-5[8:1],7,,,2-8-3-7b[8:3]/8,,
{16},,4,,4,,5,,6,6,8,,1x^4[8:1]/5x^8[8:1],,,,
{16}1bqq8[6:1]/5b,,,,3h[4:1],,,,1x,2,8-5[8:1],3,,,8/2h[4:1],,
{16},,4,3,5^2[8:1],,8,,65,,7,,1-5[8:1],4,2,,
{16}6-3[8:1]/1,,,,4h[4:1],,,,1,3,7-3b[8:1],1,,,78,,
{16}2b,2,4,,1/5,,7b,7,5,6,4,7,3,8,2,1,
{16}3-5[8:1],,8,,6-3[8:1],,8,,2-6[8:1],,8^5b[8:1],,,,8x,,
{16},,3,3,4-8[8:1],,1,,4/2h[4:1],,,,1-5[8:1],2,8,,
{16}1/6-4[8:1],,7,,3-6[8:1],,2,,7-3[8:1],,8,,2-7[8:1],,1,,
{16}5^8[8:1],,5^2[8:1],,5,,,,7,7,1,,2/6-1[8:1],,4,,
{16}6b/5xh[4:1],,,,2-6[8:1],,8,8,2,,7,,3-8[8:1]/7,,5,,
{16}4xh[4:1]/3b,,,,7-3[8:1],,1,1,7,,2,,5,4,6,5,
{16}3bx-8[8:1]/7xb,,1,,38,,7xb-4[8:1],,5,,47,,3xb,,2x/4x,,
{16}1,5,3,7,2,6,4,8,3,7,5,1,{32}4b-6-3-7-2-8[4:3],3xb,2xb,1xb,8xb,7xb,6xb,5xb,
{16}4xh[8:7],,,,,,,,,,,,,,7x,,
{16}4xqq3b[4:1]/7x>3[4:1],,,,,,,,,,4qq6[8:3],,3,,5,,,,8,,8qq2[8:3],,7,,
{16}1,,,,4,,4h[4:1],,,,1-6[8:1],,3-8[8:1],,1,,3,,5-1[8:1],,1,,5,,
{16}2^5[8:1],,1,,8,,7^2[8:1],,6,,5,,4^7[8:1],,3pp2[4:1],,,,3,,1,,8,,
{16}7-3[8:1],,3-6-4[4:1],,7,,8,,1,,2,,3b,4,2,,15,,6b,5,7,,48,,
{16}2-6[8:1]/1,,,,82,,1-5[8:1],,,,71,,8-4[8:1],,,,68,,7-2[8:1],,3-6[8:1],,7,,
{16}3,,1<2[4:1],,8,,7,,,,1-5[8:1],,7-4[8:1],,1,,7,,2-6[8:1],,5,,2,,
{16}7^4[8:1],,8,,1,,2^7[8:1],,3,,4,,5,,6,4,6,,3/7-3b[8:1],,,,37,,
{16}8-5[8:1],,,,82,,3-8[8:1],,,,35,,7b,7,1,,2v5[8:1]/6v1[8:1],,48,,E2f/C/E6,,,,
{16}7x/3x,,{24}5,4,6,{16}5,,{16}8x/7x,,7,5,6,4,5x,,6x/2x,,{24}4,5,3,{16}4,,
{16}2x/1x,,3,4,{12}2,2,2,{16}6x,,{24}7,1,7,{16}1,,6x/2x,,2,4,3,5,
{16}4x-8^1-5[2:3],,,,,,,,,,,,,,,,
{16},,,,,,,,,,,,
{16}7h[8:3],,,,3h[2:1],,,,,,5h[2:1],,,,,,
{16}1h[2:1],,,,,,Ch[8:3],,,,,,
{16}2h[8:3],,,,6h[2:1],,,,,,4h[2:1],,,,,,
{16}8h[2:1],,,,,,Ch[8:3],,,,,,
{16}5h[8:3],,,,1h[2:1],,,,,,7h[2:1],,,,,,
{16}3h[4:1],,,,7p5[8:14],,3q5[8:13],,,,,,
{16},,,,,,,,,,,,,,,,
{16},,,,,,,,,,,,,,,,
E
