&title=柴又
&artist=2号.
&first=0.03
&des=心白-HW
&des_4=心白-HW
&lv_4=13
&lv_5=14+
&inote_4=(192){4},,,,1,
8h[8:1],1,7h[8:1],
1,6h[8:1],1,5h[8:1],
1,4h[8:1],1,3h[8:1],
1,2h[8:1],1,8h[8:1],
{2}1>6[2:3],8,
8,8,
7<2[2:3],8,
8,8,
{8}1,1,2,2,3,3,{4}3,
{8}8,8,7,7,6,6,{4}6,
{8}1,1,2,2,3,3,{4}3,
{8}5-7[8:1]/4v7[8:1],5/4,,,1-3[8:1]/8v3[8:1],1/8,,,5,
5,6,6,7,7,{4}7,
{8}4,4,3,3,2,2,{4}2,
{8}5,5,6,6,7,7,{4}7,
{8}1-3[8:1]/8v3[8:1],8/1,,,5-7[8:1]/4v7[8:1],4/5,{16},,,,1,
8,1,8,1,8,1,8,{4}1,7/2,
{16}7,2,7,2,7,2,7,2,{4}7,3/6,
{16}3,6,3,6,3,6,3,6,{4}3,5/4,
{16}5,4,5,4,5,4,5,4,{4}5,3/6,
{16}3,4,3,4,{4}3,{16}6,5,6,5,{4}6,
{16}2,1,2,1,{4}2,{16}7,8,7,8,{4}7,
{1}2V41[2:1]/7V58[2:1],
8h[4:3]/1h[4:3],
{4}7-5[8:1],1-3[8:1],{8}8-4[8:1],8,,2-4[8:1],
,8-6[8:1],{4}8,{2}1-5[8:1],
{4}6-8[8:1],4-2[8:1],{8}5-1[8:1],5,,3-1[8:1],
,5-7[8:1],5,4,{2}4-8[8:1],
{4}7<5[8:1],1>3[8:1],{8}8-4[8:1],8,,2>4[8:1],
,8<6[8:1],{4}8,{2}1-5[8:1],
{4}6<8[8:1],4>2[8:1],{8}5-1[8:1],5,,3>1[8:1],
,5<7[8:1],5,4,{2}4-8[8:1],
{8}7,7,7,7,4,6,6,6,
3,5,5,5,2,4,4,4,
3,3,3,3,6,2,2,2,
5,1,1,1,4,8,8,8,
{4}8<4[4:1],4>8[4:1],{2}8-4[4:1],
{8},1,{4}1w5[4:1],,,7h[4:1],
5h[4:1],4h[4:1],2h[4:1],
{16}8,7,6,5,4,3,2,1,{2}8b,
{4}1-5[8:1],{8}7,7-3[8:1],,,2,2,
{4}2>6[4:1],{8}7,7,,,8,7/1,
6/2,{16}3,4,{8}3,{16}5,4,{4}5,2/6,
{8}3/7,{16}6,5,{8}6,{16}4,5,{4}4,7/3,
{8}2/6,{16}7,8,{8}7,{16}1,8,{4}1,6/2,
{8}7/3,{16}2,1,{8}2,{16}8,1,{4}8,3/7,
2-6[8:1],{8}7,7,{4}7-3[8:1],{8}2,2,
{4}2-6[8:1],1-5[8:1],{2}8-4[8:1],
{4}5-1[8:1],{8}3,3-7[8:1],,,6,6,
{4}6<2[4:1],{8}3,3,,,4,3/5,
2/6,{16}7,8,{8}7,{16}1,8,{4}1,6/2,
{8}7/3,{16}2,1,{8}2,{16}8,1,{4}8,3/7,
{8}6/2,{16}3,4,{8}3,{16}5,4,{4}5,2/6,
{8}3/7,{16}6,5,{8}6,{16}4,5,{4}4,7/3,
{8}2-5[8:1],2,7-4[8:1],7,1-5[8:1],1,8-4[8:1],8,
2-6[8:1],2,7-3[8:1],7,{2}1w5[8:1],
{4}2b/7b,2,2-4[8:1],5-1[8:1],
2-6[8:1],7,7-5[8:1],4-8[8:1],
7-3[8:1],2,{16}2,1,{8}2,{16}7,8,{8}7,
{4}1>4[4:1],4<7[4:1],7>2[4:1],2>5[4:1],
{2}5-1[4:1],{8}7,7,{4}7h[4:1],
1,{8}2,2,{4}2h[4:1],8,
{2}3h[4:1]/6h[4:1],{8}4/5,4/5,{16}4,5,4,5,
3,6,3,6,{4}3-8[8:1],6-1[8:1],4-8[8:1],
{16},,,,7,1,{8}7,{16}2,8,{8}2,{4}1/7,
{8}2/4,3,4/6,5,{4}4/2,5/7,
1/8,{16}2,8,{8}2,{16}7,1,{8}7,{16}2,8,{8}2,
7/5,6,5/3,4,{4}5/7,4/2,
{2}1-5[8:1]/8-6[8:1],4-8[8:1]/3-1[8:1],
{4}7h[2:1],{8}5,4,{4}3,2,
{8}1,1,2/8,2/8,3/7,3/7,{4}4/6,
{8}8,8,7/1,7/1,6/2,6/2,{4}5/3>5[1:2],
{8},,,,,,,,,,,,,,,,,,,2h[8:5],
,,,,{4}3h[4:3],
,,4h[8:5],
{8},,,7h[16:5],{16},,,6h[16:5],,,,,{2}5h[2:1],
{4}4h[4:1],3h[4:1],
{1}2h[4:3],
{4}1/8,2/7,6/3,5/4,
{1}5-7[2:1]/4-2[2:1],
1>3[2:1]/8<6[2:1],
4v1[2:1]/5v8[2:1],
2-5[2:1]/7-4[2:1],
{8}4/6h[4:3],,,5,,,{4}5,
{8}5/3h[4:3],,,4,,,{4}4,
{8}4/7h[4:3],,,6,,,{4}6,
{8}5/2h[4:3],,,3,,,{4}3,
{1}5pp8[4:3],
4qq1[4:3],
8w4[4:3],
{4},,6,7,
{8}8h[8:3],1,1,1,1,8,2,7,
3h[8:3],6,6,6,6,3,5,4,
{4}5h[4:3],,,4,
4h[4:1],3h[4:1],2h[4:1],1h[4:1],
8qq3[4:3],,,2,
1pp6[4:3],,,7,
8z4[2:1],,,2,
1s5[2:1],,,7,
{1}8<3[1:1],
3>6[1:1],
6>1[1:1],
1p5[2:1],
{16}3b,4,3,4,3,4,3,4,{2}3h[4:1],
{16}6b,5,6,5,6,5,6,5,{2}6h[4:1],
{8}4,4,6,6,2,2,8,8,
{16}1,2,3,4,5,6,7,8,{2}1b,
{4}6/3,{8}7,7,{4}7<5[8:1],4p8[8:1],
7p3[8:1],{8}2,2,{4}2>4[8:1],5q1[8:1],
2q6[8:1],8,{16}8,7,{8}6,{16}1,2,{8}3,
{4}8<5[4:1],5>2[4:1],2<7[4:1],7<4[4:1],
{2}4-8[4:1],{8}2h[2:1],1,{4}1,
8<5[8:1],2,1>4[8:1],7,
6h[4:1],3,{8}4/5,4/5,{16}4,5,4,5,
3,6,3,6,{4}3-8[8:1],6-1[8:1],4-8[8:1],
{16},,,,2,3,{8}4,{16}7,6,{8}5,{16}2,3,{8}4,
7/5,6,5/3,4,{4}5/7,4/2,
8/1,{16}7,6,{8}5,{16}2,3,{8}4,{16}7,6,{8}5,
2/4,3,4/6,5,{4}4/2,5/7,
1,{16}1,2,{8}3,{4}8,{16}8,7,{8}6,
{4}4,{16}4,3,{8}2,{4}5,{16}5,6,{8}7,
{4}1-4[8:1],8-5[8:1],3-8[8:1],6-1[8:1],
2>5[8:1],7pp4[8:3],{2}3b,
{16}3,5,3,5,3,5,3,5,2,4,2,4,2,4,2,4,
3,5,3,5,3,5,3,5,4,6,4,6,4,6,4,6,
5,7,5,7,5,7,5,7,4,6,4,6,4,6,4,6,
{4}4,5/2,3/8,6/1,
4/7,{16}6,5,6,5,{4}6,{16}3,4,3,4,
{4}3,{8}7-5[8:1],8,{4}8,{8}2-4[8:1],1,
{4}1,{16}8,7,6,5,{4}4,{16}1,2,3,4,
{4}5,{8}6/4,6/4,{4}5/2,3/8,
6/1,{16}7,5,7,5,{8}7,6/4,{4}4/6,
{8}2/4,3,4/6,5,{4}4b/2b,5b/7b,
1b/8b,{16}3,6,3,6,4,5,4,5,{4}4,
{8}7/5,6,5/3,4,{4}5b/7b,4b/2b,
8b/1b,8/1,7<4[8:1],{8}1,1,
{4}2>5[8:1],{8}8,8,{4}7V53[4:1],3V17[4:1],
,,4,6,
3,{8}5,1,{4}7,2,
8-6[8:1],1h[8:1],1-3[8:1],8h[8:1],
8-6[8:1],1h[8:1],1-3[8:1],8h[8:1],
8-6[8:1],1h[8:1],1-3[8:1],8h[8:1],
8-6[8:1],1h[8:1],1-3[8:1],8h[8:1],
8<5[8:1],1h[8:1],1>4[8:1],8h[8:1],
8<5[8:1],1h[8:1],1>4[8:1],8h[8:1],
8<5[8:1],1h[8:1],1>4[8:1],8h[8:1],
8<5[8:1],1h[8:1],1>4[8:1],8h[8:1],
8<3[2:3],{8}1,1,{4}1,{8}1,1,
{4}1,{8}1,1,{4}1,{8}1,1,
{4}1>6[2:3],{8}8,8,{4}8,{8}8,8,
{4}8,{8}8,8,{4}8,{8}8,8,
{4}8V64[2:3],{8}1,1,{4}1,{8}1,1,
{4}1,{8}1,1,{4}1,{8}1,1,
{4}1V35[2:3],{8}8,8,{4}8,{8}8,8,
{4}8,{8}8,8,{4}8b,8b,
{2}1,1,
1,1,
8,8,
8,8,
1,1,
1,1,
8,8,
8,{4}8-5[1:5],1-4[4:19],
E
&inote_5=(192){4},,,,5h[8:7],
4h[8:1],{8},3,{4}3h[8:1],
2h[8:7],6h[8:1],{8},7,{4}7h[8:1],
8h[8:7],1h[8:1],{8},2,{4}2h[8:1],
3h[8:7],7h[8:1],{8},6,{4}6h[8:1],
{16}4,5,4,5,4,5,4,5,4,5,4,5,4,5,4,5,
4,6,4,6,4,6,4,6,4,6,4,6,4,6,4,6,
4,7,4,7,4,7,4,7,4,7,4,7,4,7,4,7,
4,8,4,8,4,8,4,8,4,8,4,7,4,6,4,5,
{8}4,4h[8:1],3,3h[8:1],2,2h[8:1],{4}4,
{8}5,5h[8:1],6,6h[8:1],7,7h[8:1],{4}5,
{8}4,4h[8:1],3,3h[8:1],2,2h[8:1],{4}4,
{8}5<8[8:1],6,5,1>4[8:1],2,1,,,5,
5h[8:1],6,6h[8:1],7,7h[8:1],{4}5,
{8}4,4h[8:1],3,3h[8:1],2,2h[8:1],{4}4,
{8}5,5h[8:1],6,6h[8:1],7,7h[8:1],{4}5,
{8}4>1[8:1],3,4,8<5[8:1],7,8,{16},,,,1,
8,2,7,1q5[8:1],8,2,7,{8}1,6,{4}6,
{16}4,5,3,6,4v1[8:1],5,3,6,{8}4,7,{4}7,
{16}1,8,2,7,1q4[4:1],8,3,6,{8}1,5,{4}5,
{16}4,5,3,6,4z8[4:1],5,2,7,{2}4,
{16}7,8,6,1,7<4[8:1],8,6,1,{8}7,3,{4}3,
{16}2,1,3,8,2>5[8:1],1,3,8,{8}2,6,{4}6<3[8:3],
6,{8},,,,1,8h[1:1],
{1}2h[4:3],
{4}1>3[8:1],8,{8}7/1-4[8:1],7,,6,
1>3[8:1],7,{4}7,8/1-4[8:1],{8}7,6,
{4}1/8<6[8:1],1,{8}2/8-5[8:1],2,,3,
8<6[8:1],2,1,{16}1,2,{8}3/8-5[8:1],3,2,2,
{4}8/1>3[8:1],8,{8}7/1-4[8:1],7,,6,
1>3[8:1],7,{4}7,8/1-4[8:1],{8}7,6,
{4}1/8<6[8:1],1,{8}2/8-5[8:1],2,,3,
8<6[8:1],2,1,{16}1,2,{8}3/8-5[8:1],{16}3,2,{8}1,1,
1>3[8:1],{16}6,5,{8}1-4[8:1],{16}7,6,{8}1>3[8:1],{16}6,5,{8}1-4[8:1],{16}7,6,
{8}1>3[8:1],{16}6,5,{8}1-4[8:1],{16}7,6,{8}1>3[8:1],{16}6,5,{8}1,{16}6,7,
{8}8<6[8:1],{16}3,4,{8}8-5[8:1],{16}2,3,{8}8<6[8:1],{16}3,4,{8}8-5[8:1],{16}2,3,
{8}8<6[8:1],{16}3,4,{8}8-5[8:1],{16}2,3,{8}8<6[8:1],{16}3,4,{8}8,{16}3,2,
{4}1w5[8:1],1,{8}2-6[8:1],8-4[8:1],2,8,
,5,4h[2:1],6h[8:3],,,,,6/4,
4/6,6/4,4/6,7/3,7/3,7/3,7/3,
2/8,8/2,2/8,8/2,{4}1-6[8:1]*-4[8:1],1,
2-4[8:1],{8}2,8-6[8:1],,8,5,4,
{4}3-1[8:1],{8}3,5-7[8:1],,5,8,1,
2,{16}2,3,{8}4>1[8:1],4,{4}4<7[8:1],4,
{8}8,{16}8,1,{8}2-4[8:1]*-5[8:1],2,{4}2-8[8:1]*-7[8:1],2,
{8}3,{16}3,2,{8}8-4[8:1]/1-3[8:1],1/8,{4}1-5[8:1]/8-6[8:1],8/1,
{8}4,{16}4,3,{8}6-4[8:1]/2-4[8:1],2/6,{4}6-8[8:1]/2-8[8:1],6/2,
1>4[6:1],{8}7,8,{4}1<6[6:1],{8}3,2,
1-3[8:1],8-6[8:1],1-5[8:1],8,{4}1w5[8:1],1,
7-5[8:1],{8}7,1-3[8:1],,1,4,5,
6-8[8:1],{16}5,4,{8}6,4-2[8:1],,4,1,8,
7,{16}7,6,{8}5<8[8:1],5,{4}5>2[8:1],5,
{8}1,{16}1,8,{8}7-5[8:1]*-4[8:1],7,{4}7-1[8:1]*-2[8:1],7,
{8}7,{16}7,6,{8}5V38[4:1],5,{2}5h[4:1],
{8}1,{16}1,2,{8}3,3,3,{16}3,4,{8}5,5,
5,{16}5,6,{8}7,7,7,{16}7,8,{8}1>4[8:1],1,
1/8<5[8:1],7,8/1-5[8:1],2,1/8-4[8:1],7,{4}8/1w5[8:1],
{2}1b,{16}7,6,{8}5h[4:1],{16}3,2,{8}1h[8:3],
{16}6,7,{8}8h[8:1],,8/1,{16}1,2,{8}3h[4:1],{16}8,7,{8}6h[8:3],
{16}3,2,{8}1h[8:1],,6/1,{16}6/1,7/2,{8}8/3,{16}3/8,2/7,{8}1/6,
{4}1>4[4:1],4<7[4:1],7>2[4:1],2V46[4:1],
{2}6V82[4:1],{8}7,{16}7,6,{4}5h[4:1],
1,{8}1-3[8:1],1,{4}4/1-7[8:1],6/1-5[8:1],
5/1,{8}4,4,{16}4,3,{8}2,2h[8:3],{16}1,8,
7,6,{8}5,5h[2:1],{16}3,2,{2}1h[4:1],
{4}7/3,{16}3/7,2/6,{8}1/5,{16}6/2,7/3,{8}8/4,{4}8-5[8:1],
{8}8-3[8:1],1,8-4[8:1],7,{4}8w4[8:1],8,
2/6,{16}6/2,7/3,{8}8/4,{16}3/7,2/6,{8}1/5,1-4[8:1],2,
1-6[8:1],8,1-5[8:1],2,{4}1w5[8:1],1,
{16}7h[4:1]/3h[4:1],,,,,2/6,5/1,8/4,{4}3/7,{8}7<5[8:1]/8-4[8:1],1/6,
{4}8/7,{8}2>4[8:1]/1-5[8:1],8/3,{4}1/2,6/3,
2/7,{16}2/7,3/6,{8}4/5,{4}5-1[8:1]/4-8[8:1],5/4,
6/3,{16}3/6,2/7,{8}1/8,{4}1s5[8:1]/8<1[4:9],1/8,
{8},,,,,,,,,,,,,,,,5,
{16}5,4,3,2,{8}1h[8:11],,,,,{1}8h[4:3],
{24}8/1,7/2,{12}6/3,{24},,,,,{8}5h[8:5],{16},,,4,{48},,,,,,,,,,,,{24}4,
3,{12}2h[12:11],,,,,{4}8,8,
{24}8,7,{12}6h[3:2],,,,,,,,,,,{4}1-5[4:1],
5<8[4:1],8-4[4:1],4>1[4:1],
1-5[4:1],,,8h[4:3],
1,{8}2,{16}2,3,{4}4h[8:9],7,
{1}6h[4:3],
{4}3h[4:3],{8}4,5,{2}6h[4:1],
{32}2>5[2:1],7h[32:1],{4},,,{16},,,{32}7<4[2:1],
2h[32:1],{4},,,{16},,,{32}1V35[2:1],
8h[32:1],{4},,,{16},,,{32}8V64[2:1],
1h[32:1],{4},,,{16},,,{32}2V47[2:1],
7h[32:1],{4},,,{16},,,{32}7V52[2:1],
2h[32:1],{4},,,{16},,,{1}1pp4[4:3]/8qq5[4:3],
{2},5h[4:1]/4h[4:1],
{8}5h[4:11],4,3,2,1,8,7,6,
,6,7,8,1,2,3,4,
{1}4h[4:3],
{4}4-6[4:1],6-1[4:1],1-4[4:1],4-6[4:1],
6-1[4:1],,,2,
3,{8}4h[4:1],{16}8,7,{4}6,3,
{8}2h[2:1],,,,,7,{4}7h[4:1],
2,{8}8/1,7/2,{2}6h[4:1]/3h[4:1],
{8}4V26[1:1],,,6,,,{4}6,
{8}6V48[1:1],,,8,,,{4}8,
{8}8V26[1:1],,,6,,,{4}6,
{8}6V48[8:5],,,7,,,{4}7,
{24}1,2,3,4,5,6,7-3[8:1],8,1,2,3,4,{2}7/5h[4:1],
{24}8,7,6,5,4,3,2-6[8:1],1,8,7,6,5,{2}2/4h[4:1],
{24}1/8,7,{12}6,{24},,8/1,2,{6}3,{24}1/8,7,6,5,,,8/1,2,3,4,,,8/1,
7/2,{12}6/3,{24},,6/3,7/2,{6}8/1,{24}8/1,,,1/8,{48},,,,{16}1z5[8:1]/8s4[8:1],8/1,1/8,8/1,
{2}1b/8b,{16}3,2,{8}1h[4:1],{16}6,7,{8}8h[8:3],
{16}2,3,{8}4h[8:1],,4/8,{16}8/4,7/3,{8}6h[8:1]/2h[8:1],{16},7/3,{8}8h[8:1]/4h[8:1],
{16},7/3,{8}2h[8:1]/6h[4:1],{16},,,,2,6,{8}2,{16}7,3,{8}7,
{4}8V64[4:1],4V28[4:1],8<4[4:1],4>8[4:1],
{2}8-4[4:1],{8}3,{16}3,2,{4}1h[4:1],
8,{8}8<5[8:1]*-5[8:1],8,{4}8>3[8:1]*-3[8:1],8-4[8:1]*-4[8:1],
8,{8}3,3,{16}3,2,{8}1,1,{16}1h[8:3],8,
7,6,{8}5,5h[2:1],{16}2,3,{2}4h[4:1],
{4}4/5,{16}6/3,7/2,{8}8h[8:1]/1h[8:1],{16},2/7,{8}3/6,{4}5/4-2[8:1],
{8}4/5-7[8:1],6,5/4-8[8:1],3,{4}4/5-1[8:1],5/4,
8/4,{16}4/8,3/7,{8}6h[8:1]/2h[8:1],{16},7/3,{8}8/4,7/3,6/2,
5/3,1,4/6,8,{4}5-1[8:1]/4-2[8:1],4-8[8:1]/5-7[8:1],
5/4,{16}1,2,{8}3h[8:1],{4}6-8[8:1],{8}3,2,
{4}7-5[8:1],{8}2,3,{4}6-8[8:1]/3-1[8:1],6/3,
2/7,{16}1-5[8:1]/8-4[8:1],7/2,{8}6/3,{4}8-6[8:1]/1-3[8:1],1/8,
4/5,{16}4/5,6/3,{8}7/2,{4}5s1[8:1]/4z8[8:1],5/4,
{16}2,8,2,7,2,6,2,5,2,4,2,3,2,1,2,8,
2,7,3,7,4,7,5,7,6,7,8,7,1,7,2,7,
{8}2<7[8:1],{16}8,8,{8}2>5[8:1],{16}4,4,{8}2-6[8:1],{16}6,6,{4}2,
{16}5,7,5,7,3,7,3,7,1,7,1,7,3,7,3,7,
3,5,3,5,3,5,3,5,1,5,1,5,{4}1-5[8:1],
1<6[8:1],{8}6/1>4[8:1],5,{4}4/1-7[8:1],5/1-3[8:1],
1/5,{8}4/6,6/4,{16}4,6,4,6,3,7,3,7,
2,8,2,8,1-7[8:1]*-3[8:1],1,1,1,{4}1-6[8:1]*-4[8:1],1-5[8:1],
1,{16}1/4h[8:1],8,{8}7,{16}1/6h[8:1],2,{8}3,{4}5/1-3[8:1],
{8}5/1-7[8:1],7,5/1-5[8:1],3,{4}1/5-1[8:1],6,
7,{16}8/5h[8:1],1,{8}2,{16}8/3h[8:1],7,{8}6,4/8-6[8:1],6,
4/8-2[8:1],2,4/8-4[8:1],6,{4}8/4-8[8:1],3,
{16}1,8,3,6,1,8,3,6,{4}1w5[8:1],1,
{16}1,7,1,5,1,6,1,3,{4}1w5[8:1],1,
{16}1,5,3,7,4,8,2,6,{4}1w5[8:1],1,
{16}1,1,1,1,1,1,1,1,{32}1w5[8:1],8,7,6,5,4,3,2,{4}1b,
{2}3qq8[8:13]/7-5[8:1],4-6[8:1],
7-5[8:1],4-6[8:1],
8pp3[8:13]/7-5[8:1],4-6[8:1],
7-5[8:1],4-6[8:1],
6pp1[8:13]/2-4[8:1],5-3[8:1],
2-4[8:1],5-3[8:1],
1qq6[8:13]/2-4[8:1],5-3[8:1],
2-4[8:1],5-3[8:1],
{16}4,5,4,5,4,5,4,5,3,6,3,6,3,6,3,6,
2,7,2,7,2,7,2,7,1,8,1,8,1,8,1,8,
1,7,1,7,1,7,1,7,2,8,2,8,2,8,2,8,
3,5,3,5,3,5,3,5,4,6,4,6,4,6,4,6,
3,4,3,4,2,5,2,5,1,6,1,6,8,7,8,7,
5,6,5,6,4,7,4,7,3,8,3,8,2,1,2,1,
2,3,4,5,6,7,8,1,7,6,5,4,3,2,1,8,
2,3,4,5,7,6,5,4,{32}2,3,4,5,6,7,8,1,2,3,4,5,6,7,8,1,
{4}2b-4[8:1],{8}2,8-6[8:1],,8-4[8:1],5,8,
{4}3-1[8:1],{8}3,5-7[8:1],,5-1[8:1],8,5,
{4}2>4[8:1],{8}2,8<6[8:1],,8p4[8:1],5,8,
{4}3>1[8:1],{8}3,5<7[8:1],,5q1[8:1],8,5,
{4}2-5[8:1],{8}2,1-6[8:1],,1-4[8:1],2,1,
{4}7-4[8:1],{8}7,8-3[8:1],,8-5[8:1],7,8,
{4}1>4[8:1],{8}1,1<6[8:1],,1-5[8:1],2,1,
{4}8<5[8:1]*>3[8:1],8,8,{32}8V26[4:19]*-4[4:19],1/7,6/2,5/3,{8}4,
E
