&title=ドゥサンコオデッセイ!!
&artist=cosMo@暴走P
&first=0
&des=曲绘好可爱🐰
&lv_5=14+
&inote_5=(160)
{4},,,5h[4:1],
{16},,,,3h[16:2]/4h[16:1],,,5h[16:2]/4h[16:1],,,2h[16:2]/3h[16:1],,,5h[16:2]/4h[16:1],,,
{16}5h[16:2]/7h[16:1],,,5h[16:2]/3h[16:1],,,5h[16:2]/8h[16:1],,,5h[16:2]/2h[16:1],,,1,2,3,4,
{24}5,,,,,,4,5,4,5,4,5,4,5,4,5,4,5,4,5,4,5,4,5,
{16}4pp6[16:2]*qq2[16:2],,,,,,,,3h[16:1],,4h[16:1],,5h[16:1],,6h[16:1],,
{16}7/2,,,3,4,,2,1,,3,4,,2/5,,3,7,
{16}4,,,6,5,,7,8,,6,5,,4/7,,6,2,
{16}5,,,2,4,,7,5,,2,4,,1/5,,6,8,
{16}6,1,6,2,6,3,6,4,7,3,7,2,7,1,7,8,
{16}6,5,4,7,6,5,8,7,6,1,8,7,2,1,8,7,
{16}6b-3[16:1],,,2b-6[16:1],,,8b-4[16:1],,,2b-5[16:1],,,5,6,7,8,
{16}1h[1:1],,,,,,,,,,,,,,,,
{16}2-5[16:1],,,8-4[16:1],,,3-7[16:1],,,6-1[16:1],,,3,,4,,
{16}7h[4:13]/5-2[8:1],,,,5,,,,2q8[8:1],,,,2,,,,
{16}8p4[8:1],,,,8,,,,4p8[8:1],,,,4,,,,
{16}8qq6[8:1],,,,8,,,,6^3[8:1],,,,6,,,,
{16}3q8[8:1],,,,3,,,,1,7,1,7,{24}1,2,3,7,6,5,
{16}2,,3,4,,1,8,,5,6,,,6/5,,8,,
{16}3/5,,7,,4/6,,2,,2,4,2,5,2qq5[8:3],6,2,7,
{16}2,,,,,,1<5[8:1],,1,,,,,,3,5,
{16}4,6,5,7,4,6,3,5,{24}3,4,5,6,7,8,5,4,3,2,1,8,
{16}5h[4:1],,,,6h[4:1],,,,4h[4:1],,,,5h[4:1],,,,
{16}3h[4:1],,,,5h[4:1],,,,4h[4:1],,,,6h[4:1],,,,
{24}4,3,2,1h[16:2],,,5,6,7,8h[16:2],,,4,3,2,1,,,{16}8b,8b,8b,8b,
{16}1/7,,2/6,,3,3,,5h[16:3],,,7,8,1,2,3,4,
{16}6,5,6,4,6,3,6,2,6,1,,7-4[16:1]/8,,,8b,,
{16},,3h[8:1],,5h[8:1],,2,,6,4,8,2,7,1,5,3,
{24}6h[24:1],,6h[24:1],,6h[24:1],,2h[24:1],,2h[24:1],,2h[24:1],,1,8,7,6,5,4,1,8,7,6,5,4,
{16}7,3,6,2,5,1,4,8,1/5,,,,6,2,7,3,
{16}8h[4:1],,,,,,2,8,2h[4:1],,,,8qq5[8:5],,,,
{16}8,,,1,,,2,,,,2,,1pp4[8:5],,8,,
{16}1,,,8,,,7,,7,,6,,5,,4,,
{16}2h[16:12],,,,,,5,6,7h[4:1],,,,,,,,
{16}3h[16:3],,,7h[16:3],,,2,,1,8,2,7,3,6,4,5,
{16}3h[8:1],,7h[8:1],,2h[8:1],,6,,3,5,1,7,3,6,3,5,
{24}1,2,3,8,7,6,2,3,4,7,6,5,1,7,1,7,1,7,{16}8,8,8,8,
{16}1,6,2,7,3,8b,,4h[16:3]/5h[16:3],,,,,5,4,5,4,
{16}6,,,3,4,,4/3,,4/5-8[8:1],,6/5,,5/4,,3,,
{16}1/6,,,7,8,,8/7,,8/1-4[8:1],,2/1,,1/8,,7,,
{16}3,4,3,4,2,5,2,5,1,6,1,6,8,7,8,7,
{24}8,1,2,3,4,5,8,1,2,3,4,5,8,1,2,3,4,5,8,1,2,3,4,5,
{32}8,1,2,3,8,7,6,5,8,1,2,3,8,7,6,5,8,1,2,3,8,7,6,5,8-4[4:3],1,2,3,8,7,6,5,
{16}1,,,,6,,,,3,,,,5,6,7,8,
{32}1/2,,,8/3,,,6/5,,{16},7,6,5,{32}4/3,,,8/7,,,6/1,,{16},2,3,4,
{16}5h[8:1]/8,,1,,5pp7[8:1]/1pp3[8:1],4/8,3/7,2/6,1/5,,,,4,8,4,8,
{24}4,3,2,1,8,7,4,3,2,1,8,7,3,2,1,8,7,6,3,2,1,8,7,6,
{16}2,2h[16:2],,6,,7/8
,1,2,{24}3,4,5,6,7,8,1,2,3,{16}4,,
{32}8/7,,,1/6,,,3/4,,{16},2,3,4,{32}5/6,,,8/3,,,2/1,,{16},8,7,6,
{16}5h[16:2]/2,,1,,5/1,6/2,7/3,8/4,,,1,,8,,7,,
{16}2qq8[8:1],6qq4[8:1],2,6,2,,,,1pp3[8:1],5pp7[8:1],1,5,1,,,,
{24}2,6,2,{16}6,1,{24}7,3,7,{16}3,8,4,6,2,4,8,5h[16:53],,,
{4}6-3[8:1],6,3-8[8:1],3,8p4[8:1],8,4^1[8:1],4,1q7[8:1],1,7^4[8:1],7,
{16}4-8[8:1],,4h[8:1],,,,5b,,4,5,3,6,2,7,1,8,
{16}2,1,,8/3,,2,8,1,7,8,,6/1,,7,4,6,
{12}3b,7,1,5b,3,1,4b,6,1,5b,3,8,
{16}1,7,2,6,4,5,3,7,1,8,2,6,3,7,1,5,
{16}8,7,2,6,3,4,1,8,4,5,3,7,1,6,3,8,
{24}2,1,2,1,2,,4,5,4,5,4,,2,6,2,6,2,,1,5,1,5,1,,
{32}8,1,2,3,8,7,6,5,8,1,2,3,8,7,6,5,1,2,3,4,5,6,7,8,1-5[1:1],2,3,4,5,6,7,8,
{24},,,,,,,,,,,,,,,,,,,,,,,,
{16}4h[16:1],,4h[16:1],,4h[16:1],,4h[16:1],,3h[16:1],,3h[16:1],,2h[16:1],,2h[16:1],,
{16}1-5[8:1],,8-6[8:1],,1,,8,,,,4-7[8:1],,3,,2,,
{16}1-5[8:1],,6-8[8:1],,1,,6,,2-6[8:1],3,4-8[8:1],,,,,,
{32}1,2,3h[16:2],,,,8,1,2h[16:2],,,,7,8,1h[16:3],,{16},,6,6,2,,7,7,
{32}3,2,{16}1h[16:2],,{32}7,8,{16}1h[16:2],,{32}2b,3,{16}4,{32}8b,7,{16}6,,,{24}2,3,4,5,6,7,
{16}8,1,2,3,4,6,7,8,,1,8,2,8,3,8,4,
{24}8,7,6,5,4,3,8,7,6,5,4,3,7,6,5,4,3,2,7,6,5,4,3,2,
{16}6h[8:1],,2-6[8:1],,4,3,5/2,,,,7-3[8:1],,1,,7^4[8:1],2h[16:3],
{16},,7,,1,8,,7h[16:3],,,6h[16:2],,5h[16:2],,1-5[2:3],,
{24},,,,,,,,,,,,,,,,,,,,,,,,
{16},,,,,,,,,,,,3,6,2,7,
{16}1,8,3,5,2,7,4,6,2,8,5,6,4,7,3,8,
{24}2b,3,4,5,6,7,1b,2,3,4,5,6,8b,7,6,5,4,3,1b,8,7,6,5,4,
{24}2,,,6,5,6,1,,,5,4,5,2,,,4,3,4,1,,,5,4,5,
{24}2,,,3,4,3,8,,,4,5,4,7,,,5,6,5,8,,,4,5,4,
{12}7b,5,3,2b/1b,4,6,8b/7b,5,3,2b/8b,4,6,
{16}1b/7b,,,,1w5[8:1],7,3,8,1,,,,,,,,
