&title=星月夜の調べ
&artist=Albeumth
&first=0
&des=
&des_5=rin
&lv_5=星
&inote_5=(125){4},,{16},{64},,,{128},4xpp4[0.33##1.53]*qq4[0.33##1.515],{1},{16},,{64},,,{128},5x-8[0.3##1.5]*q1[0.3##1.5],
{1},{16},,{32},3h[64:25]/5h[64:25],
{16},,,,,,,,,4h[64:25]/6h[64:25],{32},,,,,,,,,,,,,,,,,E1,
{16},,{64},,{128},B2,{16},,{64},,,{128},B3,{16},,,{64}E5,{4},{16},{64},,,{128},6h[64:37],
{16},,,5,{128},,,,,,,,,,,,,,,,,4,{16},,{64},,,{128},3,{16},,,{64}2h[32:19],{16},,,{32}1,
{16},,{64},,{128},8,{16},,,{64}7<4[0.27##0.81],{4},,{16},{64},1>4[0.21##0.675],
{16},,,,,,,,,{32}7h[64:25],{4},{16},{64},,,5,
,,,,,,,,,,,2h[64:25],{8},,,4,{128},,,,,,,,,8w4[0.27##1.47],{1},{16},,{64},,,2x-5[0.24##0.69]/1x-4[0.24##0.69],
{16},,,,,,,,,{64}8x>3[0.24##0.705]/7xq4[0.24##0.705],{32},,,,,,,,,,,,,,,,,,,{16}E8/E2,
{128},,,,,,,,,,,,,,,,,B7/B2,{16},,{64},,,{128},B6/B3,{16},,,{64}E6/E4,{4},{16},{64},,,{128},2h[128:25],
{16},,,{32}1h[64:13],{64},,,,,,,,,,,8h[64:13],{16},,,7h[16:3],{8},{16}6h[128:25],
{128},,,,,,,,,,,,,,,,,5h[128:23],{64},,,,,,,,,,,{16}4,{128},,,,,,,,,,,,,,,,,,,4>5[0.24##1.155]/5p4[0.24##1.155],{4},,,{16},,,{64},,,D2/E2/D8/E8,
{16},,{64},,,{128},B7/A7/B2/A2,{16},,{64},,,{128},B6/A6/B3/A3,{64},,,,,,,,,,,E6/D6/E4/D4,
{16},,{64},,,{128},B5/B4,{16},,{64},,,{128},B6/B3,{16},,,{32}B7/B2,{16},,{64},,{128},B8/B1,{4},,{16},{128},B8/B7/B1/B2/E5/D5/B3/B6/B4/B5/Cfh[32:19],
{1},,{4},,,{16},,,{8}8<5[0.18##0.78],
{128},,,,,,,,,B1,{16},,,{128},E3,{16},,{64},,,{128},1>4[0.165##0.78],{16},,,{128},B8,
{16},,,{64}E7,{16},,{64},,,{128},6h[128:49],{8},,,{16}3h[128:75],
{128},,,,,,,,,,,,,,,,,Cfh[64:25],{4},,{16},{64},{128},8p4[1.125##0.48],{16},,{64},,,{128},3,{16},,,{64}2,
{16},,,8<4[1.11##0.765],{8},{128}2,{16},,,{128}1,{16},,,{64}8,{4},,{16},{64},1-5b[1.125##0.66],
{16},,{64},,,{128},2/8,{16},,{64},,,{128},7/3,{16},,,{128},1w5b[1.11##0.675],
{4},,{16},{128},1,{4},,{16},{64},{128},B8/E8/B7,
{16},,,B1/E2/B2,{128},,,,,,,,,,,,,,,,,B5/B4/E5,{16},,,{64}Cf,{8},,,{32}5<8[0.36##0.75],
,,,,,5b,{64},,,,,,,,,,,4,,,,,,,,,,,,3,{16},,,{128}2>5[0.18##0.705],
{16},,,{128}6,{16},,{64},,,{128},7,{16},,,{64}8>3v5[0.09##0.795],{4},,{16},{64},2<7v5[0.15##0.69],
{4},,{16},{128},7h[128:49],{8},,,{64}6,
{16},,,{32}2h[8:3],,,,,,,,,,,,3,{64},,,,,,,,,,,5qq5pp6b[0.12##1.65],{1},{16},,{64},{128},5/6h[128:53],
{64},,,,,,,,,,,,,7,{16},,,8,{8},{16}4/3h[128:51],{64},,,,,,,,,2,{16},,{64},,,{128},1,
{16},,,{32}5h[128:23],{128},,,,,,,,,,,,,,,,,,,6xh[128:25],{16},,,{32}8,{64},,,,,,,,,,,4xh[128:25],{16},,{64},,,{128},3h[16:3],
{16},,{64},,,{128},1,{16},,,{128},1xV35[0.24##0.675],{4},,{16},{64},{32}1V75[0.195##0.645],
{4},,{64},,,7bqq8[0.21##1.14]/2bpp1[0.21##1.14],{1},{16},,{64},,{128},8<4[0.15##0.735]*p4[0.15##0.735],
{4},,{16},{128},E8f,
{16},,,E1f,{64},,,,,,,,,B1f,{16},,{64},,{128},A2f,{4},{16},,{128},7-4[0.765##0.27],
{16},,,{128},3-8[0.75##0.27],{16},,,{64}7<1[0.75##0.915],{16},,{64},,,{128},3,{16},,,{8}7b,
{4},{16},,,{64},{128},2>8[0.105##0.78],{4},,{16},{64},8xz4[0.165##1.41]/1xs5[0.165##1.41],
{1},{16},,{64},{128},6>3[0.495##0.465],
{16},,,{32}7/2,{4},{16},{64},,,2<7[128:31],
{16},,,{4}3/6,{128},,,,,,,,,,,,,,,,,7-3[0.225##0.615]/2-6[0.225##0.63],{4},,{16},{64},{128},6pp4b[1.155##1.77],
{16},,,{64}3qq5b[0.78##1.77],{4},{16},,{64},A3f/A6f,{1},{4},,{16},,,{64},,,6,
{16},,{64},,,{128},7,{16},,,{32}8,
{16},,{64},,{128},1x-5[0.735##0.21]/2x-6[0.735##0.21],{16},,,{64}8/3,,,,,,,,,,,,1b/2b,{16},,{64},,,{128},8x-4[0.75##0.195]/7x-3[0.75##0.195],{16},,,6/1,
{128},,,,,,,,,,,,,,,,,7b/8b,{16},,,{128},E8/B7,{16},,{64},,,{128},E2/B2,{16},,,{128},E6/B5,{16},,{64},,,{128},B4/E4,{4},{16},,{64},{16}5/6q4[0.24##0.555],
{8},{128}3h[64:13],{8},,,{128}4/3p5[0.27##0.555],{16},,,{128},6h[64:13],
{4},{16},,{64},7h[64:63],,,,,,,,,,,,1b-6-2-4[0.12##1.35],{1},{16},,{64},,{128},7pp5[0.195##0.705],
{4},,{16},{128},2qq4[0.21##0.69],
{4},,{16},{64},{128},5/7bxh[64:25],
{16},,,{128},6,{16},,{64},,,{128},8,{16},,{64},,,{128},4/2bxh[64:25],{16},,,{128},3,{16},,{64},,,{128},1,
{16},,{64},,,{128},7-5[0.36##0.225]/8-4[0.36##0.225],{16},,,{8}7/8,{128},,,,,,,,,B1/E2/B2/E7/B6/E6,{16},,,{64}2-4[0.36##0.21]/1-5[0.36##0.21],{16},,{64},,,{128},2/1,{16},,,{32}B3/E4/B8/E8/B7/E3,
{16},,{64},,{128},Cf/1bx<7-3<5[0.12##1.575],{1},{16},,{64},,,{32}2/1p5[0.735##0.165],
{128},,,,,,,,,,,,,,,1,{64},,,8h[128:23],{16},,{64},,{128},1b,{64},,,,,,,,,,,,,{8}7/8q4[0.735##0.165],
{128},,,8,{64},,,1h[128:23],{16},,{64},,{128},8b,{16},,,{128},7-5[0.36##0.15],{16},,{64},,,{128},7/8-4[0.375##0.18],{16},,,{32}8/1-3[0.39##0.195],
{64},,,,,,,,,,,1/4-8[0.375##0.165],{16},,{64},,,{128},3-1[0.375##0.165]/4-6[0.375##0.15],{16},,,4bx/3bx,{128},,,,,,,,,,,,,,,,,,,5qq5[0.315##0.48]*pp5[0.315##0.48],{32},,,,,{16}5x,
{32},,,,,,,,,,,3qq4[0.375##0.48]/5pp4[0.375##0.48],{16},,{64},,{128},5x/3x,{4},{16},,{128},5w1b[0.12##0.36],
{4},{16},,{128},B8/B2,{16},,,{128},B7/B3,{4},{16},{64},,,3h[32:19],
,,,,,,,,,,,,,7-3-5[0.105##0.435],{4},{16},{64},,,6h[64:25],{16},,{64},,,{128},2pp4[0.105##0.42],{4},{16},,{64},7bx,
{16},,{64},,{128},6/5,,,,,,,,,,,,,,,,,,7,,,,,,,,8v5[0.36##0.225],{16},,{64},,,{128},1/8x,{16},,,{128},3/4,,,,,,,,,,,,,,,,,,2,
,,,,,,,1v4[0.36##0.225],{16},,{64},,,{128},8/1x,{16},,,{128},5-8[0.375##0.195]*-2[0.375##0.195],{16},,,{64}5,{16},,{64},,,{128},B2/E2/E3/A2/A8/E1/B8/E8,{16},,{64},,,{128},4w8[0.36##0.18],
{16},,{64},,,{128},4,{16},,,{32}A7/A1/E1/B1/E2/E8/B7/E7,{16},,{64},,{128},6-8[0.39##0.165]/2-8[0.39##0.165],{16},,,{128},6-4[0.39##0.12]/2-4[0.39##0.12],{16},,,{128},6-2[0.36##0.195]/2-6[0.36##0.195],
{16},,{64},,,{128},2x/6x,,,,,,Cf,{4},,{64},{128},8<4[0.765##0.27]*p4[0.765##0.27],{16},,,{32}B2f/B1,
{64},,,,,,,,,,,8bx,{16},,,{128}1>5[0.735##0.24]*q5[0.735##0.24],{16},,,{128}B7f/B8,{16},,{64},,,{128},1bx,{16},,,{128},8<5[0.36##0.36],
{16},,{64},,,{128},5>2[0.36##0.39],{16},,{64},,,{128},2<7[0.39##0.33],{16},,,{128},7<3[0.33##0.315],{16},,{64},,,{128},3>7[0.285##0.255],{4},{16},,{64},{128},3/7q3[0.57##0.315],
{16},,,{64}8/2,{16},,{64},,,{128},Cf,{16},,,{128},6/2q6[0.555##0.33],{16},,{64},,,{128},1/7,
{16},,{64},,,{128},Cf,{16},,,{128},2-4[0.39##0.165]/6-4[0.39##0.165],{16},,,{8}2-8[0.36##0.12]/6-8[0.36##0.12],{16},2-6[0.375##0.18]/6-2[0.375##0.18],{128},,,,,,,,,,,,,,,,,6b/2b,
{8},,,{64}E1,{16},,{64},,,{128},B8/B1,{16},,,{32}A1/D2/A2/A8/D8/A7,,,,,,E7/E3,
{128},,,,,,,,,,,,,,,B6,{16},B3,{128},,,,,,,,,,,,,,,B5,{16},,,{128},B4,{16},,,{128},E5,{4},,{16},{128},B1,
,B8,,A1,,A8,,D2,,D8,,A2,,A7,,E3,,E7,,B3,,B6,,B4,,B5,,E5,{8},,,{64}E2,E3,E4,
{128}E5,{4},,{64},{128}E8,,E7,,E6,,E5,{4},,{64},,,{8}Cf,
E
