&title=Désive
&artist=MisomyL
&first=0
&des=Tachi.mia
&lv_5=14
&inote_5=(184){8},
{12}B4,B3,E3,B2,,,,,,,,,
{12}B5,B6,E7,B7,,,,,,
{8},,
{16},,
{4}4,3,2,1-5[4:1],,,
{4}6,8-4[4:1],,,1,1-4[2:1],,,,
{32}5,6,7-4[2:1],
{8},,,1,,,,
{4}3h[1:1],,,8,
{1}8h[1:1],2h[1:1],
{4}4xw8[3:1],,,
{16},,,{48},{192},
(153){12}1xb-3[8:1],7,7,
1x-4[8:1],6,6,
1x-5[8:1],7,7,
1x-3v4[4:1],6,6,
5x/1x,,,,
8xb-6[8:1],2,2,
8x-5[8:1],3,3,
8x-4[8:1],2,2,
8x-6v5[4:1],3,3,
4x/8x,,,,
1b-3[8:1],7,8,
1-4[8:1],7,6,
1-5[8:1],7,8,
1-3v6-4[4:1],7,6,
1x,,,,
8b-6[8:1],2,2h[12:1],
8-5[8:1],3,3h[12:1],
8-4[8:1],1,1h[6:1],,,,
(230){4}3,2,1,
{8}7-4[8:1]/4,6xb,5x,3x,2-5[8:1],,
2,,1x,3b-8[8:1],6x,3x/5x,7-5[8:1],,74,2-6[8:1],,28,1-6[8:1],,13,4-8[8:1],,45,7<4[4:1],,3,2,1,,1>4[8:1],,1b/7,6,2,8,1/3-5[8:1],,36,,7,8b,6<1[8:1],2,64,,
2-5[8:1],,72,8-4[8:1],,81,3>8[8:1],,37,6<4[4:1],6h[4:1],,,,,,
{24}1x,8x,7x,6xh[4:1],,,,,,8x,1x,2x,3xh[4:1],,,,,,8,7,6,5h[4:1],,,,,,8,1,2,3h[4:1],,,,,,
{16}7,5,6,5,,,2,4,3,4,,,7b,6,8,7x,,,2b,1,3,2x,,,
{1}Cf,,,4h[12:1]/5h[12:1],B3,7qq4[1:3],,{2}E3,
{8}E2,,,E1,
{1},3pp8[1:3],,
{2}E7,
{8}E6,,,E5,
{1},
{4}4v7[2:3],,,{1}B5/E6,
{4},2v5[2:3],,,{1}B3/B4,
{4},
{1}6h[1:2],,5h[1:1],4,
{16}3,4,3,
{2},
{16},7,,
{24}5,6,5,,,,
{2},
{8},
{4}2,3,4,5-3[8:1],
{8}6,6h[16:13],
{1},
{2}4/3h[16:12],
{8},,5,6h[16:26],
{2},
{4},5,4,3,2,
{8}1,
{24}1b-4[8:1]`E6,B5,,
{1},
{8}7-4[8:1]/5,,3,2,1,,87,1-5[8:1]/6,,14,3-7[8:1],,8,1,2,,4b/5-8[8:1],,2,3,4,,56,7-3[8:1]/4,,17,2-6[8:1],,5,4,3,,7,1-5[8:1]/6b,,13,4-7[8:1],,1/4,2b>5[8:1],,28,7-4[8:1],,3,2,1,,8,1b/7v4[8:1],,73,2>5[8:1],,27,6bv1[8:1],,63,4,,
{16}5x-1b[0.54##0.1],6x,4x,7x,3x,6x,4x,5x,
{1}5b,E7,E5,E3,B8/B1,C,E6/E4,
{2}4xbh[2:1]`A5`D6,5xb,
{8}54,,34,2/5-2[8:1],,56,7,,8,7,6>3[8:1],6,3,2,1-5[8:1],,17,,34,2/6<2[8:1],,56,3,,34,34,25,16,78,78,16,,
{16}2,5,2,4,3,,7,4,7,5,6,,1,8,1,8,1,,,27,,,3,5,3,4,3,,56,,47,,6,4,6,4,6,,5b,5,5,5,5,,2,4,2,4,2,,3b,3,3,3,3,,8xbw4[1:5],8x,8x,8x,
{1}8x,,,,,,
{4},,
{16},,
{4}1,,2,,3h[1:1]/4,,,4,5,,5,,6h[1:1]/5,,,,5,,4,3,2,,,8,8,,,6x,6x`5,,,,3`4,,5,,4`5,,,7,6`5,,,2,1`8,,,3,3,,4,,
{1}5h[1:2],,4xV62-8[1.2##0.9],4x/5xV37-1b[32:24],
{8},,
{24}1xb/8xb,27,36,
{16}4-1[8:1]/5,,,,,,5,,6,,7b-5[8:1]/4,,,,73,,2,,1-3[8:1],,,,7,,6,,5,2,5,3,4,,1,,7,4,7,5,6,,8,,4,5,3,4,2,,6,4,5,,3,,65,,7,,45,,,,1,,2,,3b-6[8:1],,,,35,,7,,8-5[8:1],,,,38,,2,,1,,,,34,,,,
25,,3,4,3,,25,,25,,3,4,2,,15,,15,,2,3,4,,56,,56,,47,,
{4}3-5[8:1]/8,6-8[8:1]/3b,6/2-5[8:1],2/1w5[8:1],1,7/8-2[8:1],8/5-7[8:1],5/1-4[8:1],1/8w4[8:1],8,
{16}B1/E2/B2,E3,E4,E5,E6,E7,E8,E1,E2,E3,B4/E4/B3,,
{8}6x/5x,7x/4x,6,15,2,3x-8[8:1]/4x,5,36,7-4[8:1],,1,2,3-6[8:1],,7,8,1-6[8:1],,4,3,2-5[8:1],,26,,
{16}74,,6,5,6,,74,,74,,6,5,7,,84,,84,,7,6,5,,43,,15,,2,3,4,,56,,
{1}5-1[4:1]/6-2[4:1],
{4}3h[6:1]/4h[6:1],2h[6:1]/5h[6:1],1h[8:1]/6h[8:1],8h[8:1]/7h[8:1],
{24}8x/7x,1x/6x,2x/5x,3xb/4xb,,,,,,1x/2x,3x/8x,7x/4x,5xb/6xb,,,,,,18,27,36,4xb/5xb<8[8:1],,,,,,4,3,2,1b,,,,,,
{8}3h[6:1]/4h[6:1],,2h[4:1]/5h[4:1],,,,3>8[8:1]/4,,36,5,4<7[8:1],,48,1,2,3,4/8-4[8:1],7,5-2[8:1]/8,,5b/7,,34,1b/5,,87,1>5[4:1]/5b,,8,7,6-8[8:1],,2,3,
{4}4>1[4:1],1<6[4:1],6>3[4:1],3>8[4:1],8<5[4:1],5>2[4:1],2-6[8:1],8,7-3[8:1],74,
{8}12,48,,65,4/8<4[4:1],,4,3,2,1,8-4[8:1],,83,,1,1,6,6,3,3,8,8,45,45,36,36,27,27,18,18,35,,
{16}3,5,3,5,3,5,3,5,3,5,3,5,3,5,4,4,4,4,4,4,4x,4x,4x,4x,4x,4x,4x,4x,
{1}4xbh[1:1],
{24}5,6,7,8V64[0.8##0.26],,,,,,,,,4,3,2,1V35b[4:1],,,,,,,,,
{8}E7/B6f/E6/E3/B3f/E4,,
4x/6x,3x,2xb-5[8:1],,27,8,1-4[8:1],,15,6,7-3[8:1],,73,,1,2b>5[8:1]/8,,21,7-4[8:1],,17,3b-8[8:1],,36,5h[4:1],,
{16}1x,1x,1,1,1,1,1x,1x,
{1}1,Chf[2:1]/E8/E2/E7/B6/E6/E3/B3/E4,
{24}1,2,3,4h[8:1]/8,,,,,,8,7,6,5h[8:1]/3,,,,,,
{16}1,7,2,6,3,5,3,5,2,6,1,7,8x,8x,8x,8x,8,8x,8,8,
{1}8b,,
{16}B4,B3,B2,B1,,{24},{16}B5,B6,B7,B8,,{24},
{24}E5,E4,E3,E2,E1,,,,{48},{24}E5,E6,E7,E8,E1,,,,{48},
{32}A4,D4,A3/B3,D3,A2,D2/E2,,,,,,{64},{32}A5,D6,A6/B6,D7,A7,D8/E8,,,,,,{64},
{24}D4,B4/B3,C,B1/B2,D2,,,,{48},{24}D6,B5/B6,C,B8/B7,D8f,,,,{48},
