&title=おどれ! VRダンス!
&artist=くらげP
&first=0
&des=MYOU
&lv_5=13
&inote_5=(160)
{1},5h[8:23],,4h[8:7],
{16}5,4,5,4,5,,4,5,,4-1[16:1],5,,7b,,,,
{16}7,2,5,4,7,,2,5,,4-1[16:1],7,,8b,,,,
{16}8,2,7,3,5-1[8:1],,,,1,,,4,,,7/3h[4:1],,
{16},,4,3,5h[8:1],,4,5,3,4,,1,,8,8,,
{16}1,7,2,6,4-8[8:1],,,,8,,,5,,,3/7h[4:1],,
{16},,5,6,3h[8:1],,5,4,7,5,,8,,1,1,,
{16}8,2,7,3,5-1[8:1],,,,1,,,4,,,7/3h[4:1],,
{16},,4,3,5h[8:1],,4,5,3,4,,21,,8,8,,
{16}1,7,2,6,4-8[8:1],,,,8,,,5,,,2/6h[4:1],,
{16},,5,6,3h[8:1],,5,4,7,5,,87,,1,1,,
{16}1-5[8:1]/2-4[8:1],,,,12,,,,7h[16:3],,,5h[16:3],,,4<7[8:1],,
{8},1,1>4[8:1],,6v1[8:1],,{24}B5,C,B1,,,,
{16}8-4[8:1]/7-5[8:1],,,,87,,,,2h[16:3],,,4h[16:3],,,5>2[8:1],,
{8},8,8<5[8:1],,3v8[8:1],3,{24}B4,C,B8,,,,
{16}1-5[8:1]/2v4[8:1],,,,12,,,,7h[16:3],,,5h[16:3],,,4q8[8:1],,
{8},1,1q5[8:1],,6v1[8:1],,{24}B5,C,B1,,,,
{16}8-4[8:1]/7v5[8:1],,,,87,,,,2h[16:3],,,4h[16:3],,,5p1[8:1],,
{8},8,8p4[8:1],,3<6b[8:1],2,1b,,
{16}1-5[8:1]/7-4[8:1],,,,17,,,,1h[16:3],,,3h[16:3],,,4>1[8:1],,
{8},8,7<4[8:1],,3qq1[8:1],,{24}E5,E6,E7,,,,
{16}8-4[8:1]/2-5[8:1],,,,82,,,,8h[16:3],,,6h[16:3],,,5<8[8:1],,
{8},1,2>5[8:1],,6p2[8:1],7,{24}B7,C,B2,,,,
{16}1p4[8:1]/7<4[8:1],,,,17,,,,1h[16:3],,,3h[16:3],,,4p8[8:1],,
{8},8,7p3[8:1],,2>6[8:1],,{24}B3,C,B7,,,,
{4}8b-4[8:2]/5b-1[8:2],,,{8},47,
{16}47,,6,5,6,,78,,2,1,2,8,3,7,4,6,
{8}5<4[2:1],,,5,5,,7,,
{8}8/4qq5[2:1],,7,,6,,,6,
{4}6/5h[4:1],4,3/4h[4:1],5,
{4}5h[4:1]/7b,3b,4h[4:1]/2b,6b,
{8}3>4[2:1]/5,,,4,4,,3,,
{8}2/5pp4[2:1],,1,,2,,3,,
{4}2/4h[4:1],8,7/5h[4:1],1,
{16}4b/2b,,,5b/7b,,,1b/8b,,2bq7[8:1]/7b,,,,Cf,,,,
{8}18,2,47,6,{16}1x-5[16:1]/5x-7[16:1],,,1x/5x-1-3v4b[16:5],,,{24}8xb,Cf,,
{8},,,56,7,18,2-6[8:1],34,
{16}2b/5b<8[8:1],,,,45,,3,,1x-5[16:1]/2x,,,1x/7xpp4[16:6],,,2x,,
{8}2xh[8:1],,2xh[8:1],,2x/3xq8[8:1],,Cf,,
{8}21,8,62,3,{16}8x-5[16:1]/5x-2[16:1],,,8x/5x-8z4b[16:5],,,{24}1xb,B6/B7f,,
{8},,,53,2,81,7-3[8:1],65,
{16}4hb[2:1]/7b,,,,,,,,B1/B2/E2/A1/A2/D2,,,B7/B8/E8/A7/A8/D8,,,4x/5xh[8:3],,
{8},1,1,1,{16}1,7,2,6,3-8[8:1],5,2,4,
{4}1b>4b[8:1],1b/6b-1[8:1],8b<5b[8:1],3hb[4:1]/8b,
{8}1,7,4/5h[4:1],,2,8,5/6-1[8:1],,
{4}8b<5b[8:1],8b/3b-8[8:1],1b>4b[8:1],6b/1b,
{16}8h[16:3]/6,,,5h[16:3],,,4,,1>4[8:1],,,,{24}6-2[8:1]/E2,E3,E4,,,,
{4}8b<5b[8:1]/6b,8b/3b-7[8:1],1b>4b[8:1]/3b,6hb[4:1]/1b,
{8}8,2,5/4h[4:1],,7,1,4-7[8:1]/3-8[8:1],,
{24}3b/4b,Cf,,{16},,,,,,26,,,37,,,4/8-5-2[4:1],,
{8},1,1-6[8:1]*z5[8:1],,1b<2[4:1],,,,
{16}Cf/B1/B2/B3/B4/B5/B6/B7/B8,,,,,,,,15,,,26,,,3/7-4-1[4:1],,
{8},8,8-4b[8:1]*-2v3b[8:1],,8b,,,,
{16}1,7,2,6,4-8[8:1],,,,8,,,5,,,3/7h[4:1],,
{16},,4,6,2h[8:1],,5,3,7,5,,8,,1,1,,
{16}8,2,7,3,5-1[8:1],,,,1,,,4,,,6/2h[4:1],,
{16},,4,3,8h[8:1],,5,7,1,5,,3,,8,8,,
{16}1,7,2,6,4-8[8:1],,,,8,,,5,,,4/8h[4:1],,
{16},,4,7,1h[8:1],,5,2,8,5,,37,,1,1,,
{16}8,2,7,3,5-1[8:1],,,,1,,,4,,,6/2h[4:1],,
{16},,4,3,1h[8:1],,5,8,1,5,,26,,1v8b[16:1]/7p2b[16:1],17,,
