&title=『マジック・メイド』 feat.重音テトSV
&artist=MIMI
&first=0
&des=Akari
&lv_5=13
&inote_5=(176)
{16},
{32},
{8},,,,,,3/4,,,3/4,,4,2-4[8:1],,5,,,6/5,,5,7-5[8:1],,4,,,4/3,,4,2-4[8:1],,5,,,6/5,,5,6-8[8:1],,1,,,1/2,,1,3-1[8:1],,8,,,8/7,,8,6-8[8:1],,1,,,1/2,,1,3-1[8:1],,8z4[4:1],,,,,,
{8}3/4,,3/4,,3,4,,3,3-1[8:1]/4h[8:2],,3,,6,5,,6,6-8[8:1]/5h[8:2],,6,,3,4,,3,3-1[8:1]/4h[8:2],,3z7[4:1],,,,,,
{8}4/5,,4/5,3,2,1/5,,5,1-5[8:1],,1/5,6,7,8/4,,4,8-4[8:1],,8/4,3,2,1/5,,5,1-5[8:1],,1/5,6,7,8w4[4:1]/4,,,,,
{8}6h[8:4],4,4,3,3h[8:4],5,5,4,4,,3-1[8:1]/4-6[8:1],,3/4,,8,8,7,7,5,5,4,4,3,3,2/6,,4z8[8:1]/5s1[8:1],,4bx/5bx,,,,2/7,,4>1[4:1]/5,5,,6,6-4[8:1],8,8-4[8:1]/6,,8-3[8:1]*-5[8:1],,,,6v8[8:1],8<3[4:1],1h[8:1],,1h[8:1],,1xh[8:1]/2x>6[4:1],,2x/1xh[8:1],,2xh[8:1],,2-5[8:1]/6-1[8:1],,Cf,,,,
{8}4h[8:1]/5v6<7[8:2],,4,4,,7xp2[4:1]/5h[8:1],,5h[8:1],,5h[8:1],,5h[8:1]/2xh[8:1],,5>3[8:1]/2q6[8:1],,2/5,,2h[8:1]/7h[8:1],,2h[8:1]/7h[8:1],,1-4v3[2:1]/8-5v6[2:1],,,,,,,,4/5,3/4,3/2,
{16}1h[8:1],,3x,2h[8:1],,4x,
{8}3q5[16:6],,5,5,,
{16}8h[8:1],,6x,7h[8:1],,5x,6pp5[16:4]/4qq5[16:4],,,,,,,,,,3/4,,2,,1/5,,6,,7/8,,6,,1/5,,3,,4/8,,8,5h[8:1],,,8x-5[8:1]/6x-2[8:1],,,,,,,,,,2/5,,,,3/4,,1>4[4:1]/4,,,,5,,6,,7,,8<5[4:1],,4,,3,,2,,1pp3[4:1]*qq7[4:1],,,,,,,,,,,,
{8}4/6,3,1-3[8:1]/7,8<5[8:1],1,8,4h[4:3],,,,,,C,,
{16}4h`5h,,,3h`4h,,,3h[4:1]`4h[4:1],,,,,,3h`4h,,3h`4h,,4h`5h,,,6h`5h,,,6h[4:1]`5h[4:1],,,,,,6h`5h,,6h`5h,,7h`4h,,,8h`3h,,,1h[4:1]`2h[4:1],,,,,,3,,4,,7h`5h,,,6h`4h,,,3h`5h,,4h`5h,,5h`6h,,4h`5h,,4h`3h,,4h`5h,,,7h`5h,,,2h[4:1]`4h[4:1],,,,,,3h`5h,,4h`6h,,7h`5h,,,2h`4h,,,1h[4:1]`8h[4:1],,,,,,7h`6h,,6h`5h,,5h`4h,,,3h`7h,,,2h`6h,,,,8h`4h,,8h`3h,,8h`2h,,8h`1h,,1h`7h,,1h`6h,,1xq5[4:1]`5xq1[4:1]b,,,,,,,,,,
{8}3/6h[8:26],,3,,3-7[8:1],,3,,8,,8,,8-5[8:1],,8,,4,,4,,4>2[8:1],,4,,1,,1w5[4:1],,,,,,3-8[8:1],4,3/5,6h[8:3],,5,5V71V75[2:1],,4,4,3,3q5[4:1],,6,6,,7>2<7[2:1],,2>5[4:1]*>5[4:1],,,,,,6,5,7,1/8,,B2/E3/B3,B7/E7/B6,,
{16}4h[16:4]/5h[16:4],,,,,,3,4,2-7[8:1],,,,2/7,,,,5/6,,,5/6,,,6,5,7-2[8:1],,,,7/2,,,,3h[16:4]/4h[16:4],,,,,,2,2,4,,,,4/3,,3,4,1,,6,5,8,,1,7v5[8:2],1bs5[8:1]*s5[8:1],,,,,,,,
{8}3/6,,4-2<1[8:1]/5,7h[8:2],,,8>4[4:1],,4<8[4:1],,8>4[16:3]*V64[16:3],,,,7h[8:1],,7h[8:1]/3h[8:1],,2h[8:1]/6h[8:1],,2-8[8:1]/6-8[8:1],,2/6,,3xh[8:1]/4x<8[4:1],,3xh[8:1],,3xb,,8<6v7[4:1]/3<4v5[4:1],,,,,,7h[8:1]/5h[8:2],,8p2[4:1],,6h[8:1],,6h[8:1],,2xq7[4:1]/6x>3[4:1],,,,,,2h[8:1]/6h[8:1],,1h[8:1]/5h[8:1],,8-3[8:1]/4-7[8:1],,8/4/Cf,,,,,3/5,4/6,5/7,
{16}8h[16:6]/6,,5x,5x,,4x,4xv2>4[4:1],,,,E6/B5,,E8/B8,,,,8h[16:6]/3,,4x,4x,,5x,5xqq5[4:1]*pp5[4:1],,,,,,,,,,1/8,,2,,3/4,,5,,6/2,,7,,1/8,,7,,6/A2,,,6/E1,,,6p4[16:6]/A7,,,,,,3,,2,,1,,,,1/5,,3-7[8:1]/7-4[8:1],,,,3/7>3q5[16:10],,,,5h[8:1],,,,6h[8:1],,,,7,,7-2[8:1],,,,7/5-8[8:1]*-2[8:1],,,,5,,,,7-5[8:1]/1-5[8:1],,,,1/7,,,,3-8[8:1]/4-7[8:1],,,,Cf,,,,,,,,,,
{16}7h,,6h,,5h,,4h`3h,,,4h`3h,,,4h[16:4]`3h[16:4],,,,,,2xh`1xh,,8xh`7xh,,5h`6h,,,7h`5h,,,2h[16:4]`4h[16:4],,,,,,1xh`8xh,,7xh`5xh,,5h`4h,,,3h`4h,,,2h[16:4]`4h[16:4],,,,,,1h,,8h,,7h,,,4h`6h,,,7bxh`3bxh,,,,2,,1,,8,,7/3,,6,4,6,,4/5,,3,4,3,,1/5,,6/8,,6/8,,,5<1[8:1]/4v2[8:1],,,5/4,,,,3,,3h[16:2]/6h[16:4],,,,5,6,5,6,4,7,4,7,3,8,3,8,2,1,2,1,3,4,3,4,2,5,2,5,1,6,1,6,8,7,8,7,5x<3q5[8:12]b,,,,,,,,,,,,,,,,,,,,,,,,5xw1[8:1],,,,Cf,,,,
{16}7/3,,,,3,,4,,5-3[8:1]/6-8[8:1],,,,5/6,,,,2,,2,,7,,7,,8-4[8:1]/3-1[8:1],,,,,,,,2x>4q5[16:7]/5x,,,,6,,6,,,,7,,7,,1,,1,,8,,8-4[8:1],,1,,8/2,,,,3,,4,,5h[8:1]/6h[8:1],,,,5h[8:1]/6h[8:1],,,,7/4,,3,,2/6,,7,,1-4v2[16:4]/8-5v7[16:4],,,,,,,,,,E8/B7,,E2/B2,,,,3-1[8:1]/4-6[8:1],,,,3/4,,,,5-2[8:1]/6,,7,,8/5,,,,3-8[8:1]/4-7[8:1],,,,3/4,,,,5-1[8:1]/6,,7,,8/5,,,,3-7[8:1]/4-8[8:1],,,,3/4,,,,5v8[8:1]/6,,7,,8V24[4:1]/5,,,,4x>8[4:1],,,5x,,,6xb,,,,,,1,,1,,2pp2[4:1]/8qq8[4:1],,,,,,,,,,1,,8/7,,6,,5/4,,3,,2/6,,7,,1-5[8:1]/8,,,,1/7,,7,,6-2[8:1]/4,,,,4/6,,4,,1-4[8:1]/3,,,,1>8[1:1]/8,,8,,Cf,,,,,,,,,,,,,,,,1s5>3-8[16:26],,,,,,,,,,,,,,,,,,,,,,,,7-4[8:1]*-4[8:1],,,,,,,,
{16}2/7,,,,3>8[8:1],,4,,3/5-1[8:1],,,,5/4,,3,,3,,4,2,4,,1,,1-5>2[4:1],,,,1/7,,6,,6,,4,5,4,,3/6,,,,2,1,2,,7,8,7,,2,4,3,,7,5,6-8[8:1],,,,6/4,,4,,3b>8[8:1],,,,3/5,,5,,6b-1[8:1],,,,6/4>5[2:1],,4,,4/Cf,,,,,,,,,,E1,,C,,E5,,6/E1f,,,6/Cf,,,6/E5f,,,,4,5,4qq4[4:1],,,,4pp4[4:1]b/B8f,,,B8f/E1,,,E1/B8f/E8,,,,2,,5v2[8:1],4,5,,5/7,,7,,8,,8,,1/6,,1/6,,2/5,,2/5,,3-8[16:3]/4,,,8>4[16:4]*<4[16:4],,,,,,,,,2,,1,,8/7,,6-1[8:1],5,6,,6/4-1[8:1],,,,4/5-8[8:1],,,,3/5,,,,2,3,4w8[8:1],,3/5,,4,,,,2/6,,3,,4>1[8:1],,B5,B6,E7/4x,,8,,8<5[8:1],,3x,2x,1w5[4:1],,,,,,,,,,,,,,4,,3,,2,,2/E8,,,3,,,3/E7,,,,2,,3,,
{32}4q5[16:26]/A7,D7,A6,,,,,,,,,,,,,,,,,,,,,,,,,,,,,,,,,,,,,,,,,,,,,,,,,,,,,,,,,,,,,,,,,,,,,,,,,,,,,,,,,,,,,,,,,,,,E
