&title=First Color
&artist=Rimne
&first=0
&des=woxxow_lg
&lv_5=13
&inote_5=(137)
{1},
{16}2xb-6b[2:1]/6xb,,,,,,,,,,,,,,,,
{16}7h[2:1],,,,,,,,5h[2:1],,,,,,,,
{16}3h[2:1],,,,,,,,1h[2:1],,,,,,,,
{16}3x,,4,,5,,6,,2x,,1,,8,,7,,
{16}5h[8:3]/6,,,,,,6h[8:3],,4,,,,4,,,,
{16}4h[8:3]/2,,,,,,3h[8:3],,C,,,,1<3[4:3],,,,
{16}3h[8:1],,,,2h[8:1],,,,1h[8:1],,,,8h[8:1],,,,
{16}8qq3b[4:2]*pp5b[4:2],,,,,,,,,,,,,,,,
{16}1x/6xqq3[32:15],,,,1,,,,1,,,,1,,3^6[32:5],,
{16}1,,,,1,,7V51[8:2],,2,,,,3,,,,
{16}8/4pp2[32:15],,,,8,,,,8,,,,8,,1-5[8:1],,
{16}8,,,,8,,4v2[8:1],,7^2[32:5],,,,,,,,
{16}3x/5xpp5b[16:6],,,,3,,,,3,,,,3,,4,,
{16}3,,1^6[32:5],,3,,,,2,,1,,8,,7,,
{16}2-5[8:1]/6,,,,6,,,,6/4-1[8:1],,,,6,,5qq7[8:5],,
{16}8>6[8:4],,,,,,,,,,,,,,,,
{16}8bz4[4:5],,,,,,,,,,,,,,,,
{16},,,,,,,,,,,,,,,,
{48}3qq6[4:5],4q5[48:59],,,,,{16},,,,,,,,,,,,,,
{16},,,,,,,,,,,,,,,,
{64}6p2[4:2],5^3[64:31],,,,,,,{16},,,,,,,,,,,,,,
{16}2>6b[2:1]/1q7b[2:1],,,,,,,,,,,,,,,,
{16}4xbqq4b[2:1]`4?pp4[128:63],,,,,,,,,,,,,,,,
{16}Cf,,,,,,,,4-8b[8:1],5,4,,,,,,
{16}2b^5[8:1]/6b,,1,,8,,1,,6^3[8:1],,8,,1,,8,,
{16}1^4[8:1],,6,,5,,6,,75,,4-1[8:1],,3,,2h[4:1],,
{16},,8-5[8:1],,7,,6h[4:1],,,,4^1[8:1],,3,,2h[4:1],,
{16},,7<2b[4:1],,6,,5h[4:1],,,,,,1x/5x,,,,
{16}7x^4[8:1]/3x,,8,,2,,1,,8^3[8:1],,7,,5,,6,,
{16}8^5[8:1],,1,,3,,2,,34,,5,,57,,4,,
{16}2/4-1[8:1],,3,,4/6,,5,,4-7[8:1]/2,,3,,4/6,,5qq8b[16:7],,
{16},,8h[8:1],,,,1h[8:1],,,,2,,3/7,,,,
{16}4b-7[8:1]/5b,,2,,1,,3,,5-2[8:1]*-2[8:1]/4,,7,,8,,6,,
{16}3-7[8:1]b/4,,1,,8,,2,,35,,6-1[8:1],,7,,8h[4:1],,
{16},,4-1b[8:1],,3,,2h[4:1],,,,6^1^4b[4:1]*^1[8:1],,7,,8x,,
{16},,6pp1[32:13],,5qq1b[32:9],,,,,,,,Cf,,,,
{16}3b/7,,6-3[8:1],5,,,6b/2h[4:1],,,,3,,8,,5,,
{16}6b/2,,3-6[8:1],4,,,3b/7h[4:1],,,,6,,1,,4,,
{16}3/8-4[8:1],,1,,8,,3,,2-6b[8:1],,1,,2,,7,,
{16}5^2[8:1]*^8b[8:1],,46,,,,,,1,7,2,6,4bh[4:1],,,,
{16}B4f/E4/E5,,,,,,7h[8:1],,E7,,,,3h[8:1],,E4,,
{16}5h[4:1],,,,B3/E3/E4,,,,B7/E8/E7,,,,2,,6,,
{16}3/7,,,,8,,2h[8:1],,E3,,,,6h[8:1],,E6,,
{16}4h[4:1],,,,B1,,3,,B7,,5,,8,,,,
{16}2x/6x,,,,1,,6h[8:1],,E6,,,,4h[8:1],,E5,,
{16}2h[4:1],,,,E8/A7/D8,,,,E4/D4/A3,,,,8,,4,,
{16}2qq4[8:8]/6p5b[8:6],,,,,,,,,,,,,,,,
{16},,,,,,,,6pp8[8:1]/3qq1[8:1],,,,,,,,
{16}2b^7b[4:3],,,,,,,,,,,,,,2,,
{16}2^7[4:3],,,,,,,,,,,,,,,,
{16}3>6b[4:4],,,,,,,,,,,,,,4,,
{16}4q5[4:3],,,,,,,,,,,,,,,,
{16}7b^2b[4:3],,,,,,,,,,,,,,7,,
{16}7^2[4:3],,,,,,,,,,,,,,,,
{16}6<3b[4:4],,,,,,,,,,,,,,5,,
{16}5-3-6-4[8:5],,,,,,,,2^7[8:1],,,,,,,,
{16}1x/5x,,,,7^2[8:1],,2,,4-1[8:1],,,,6,,,,
{16}4h[4:1],,,,2^7[8:1],,7,,5-8[8:1],,,,3,,,,
{16}5h[4:1],,,,7-4[8:1],,5,,5-8[8:1],,,,6,,,,
{16}4h[4:1],,,,2-5[8:1],,4,,4-1[8:1],,,,3,,,,
{16}5h[4:1],,,,2^7[8:1],,4,,5-8[8:1],,,,6,,,,
{16}4h[4:1],,,,7^2[8:1],,5,,4-1[8:1],,,,3,,,,
{16}4x,7,5x,7,3x,6,4x,6,2x,5,3x,5,1x-5[8:1],4,2x,4w8b[8:1],
{16}1xb,,,,,,,,2-6[8:1]/6,,3,4,2`Cf,,,,
{16}7xb-5[32:3]/3b,,6,,4,,2x,,1-7[32:3],,8,,6,,4x,,
{16}3x-1[32:3],,2,,8,,6x,,24,,5-8[8:1],,6,,7-4[8:1],,
{16},,1-4[8:1],,2,,3-8[8:1],,,,5-8[8:1],,6,,7-4[8:1],,
{16},,1q6b[4:1],,2q7[8:1],,3,,,,,,8x/4x,,,,
{16}2x-5[8:1]/6,,3,,5,,7x,,8-3[8:1],,1,,3x,,5,,
{16}6x-1[8:1],,7,,1,,3x,,65,,4,,4x/2x,,5,,
{16}6/5-2[8:1],,7,,4-6[8:1],,3,,5-8[8:1],,7,,4,,3>7>3b[16:7],,
{16},,6h[8:1],,,,4h[8:1],,,,5,,3/7,,,,
{16}2xb-6[8:1]/7b,,1,,4,,8x,,7-3[8:1],,8,,5,,1x,,
{16}2x-6[8:1],,1,,4,,8x,,74,,3-8[8:1],,2,,1-4[8:1],,
{16},,5-8b[8:1],,6,,7-4b[8:1],,,,3>5b[4:1],,2,,1x,,
{16},,3V14[8:3],,3pp4b[8:2],,,,,,,,D5f/A5/A4/D6/D4,,,,
{16}1b,6,2^5[8:1],4,,,2b/8qq7[16:3],,,,5,,3,,1,,
{16}8b,3,7^4b[8:1],5,,,7b/1pp2b[16:3],,,,4,,6,,8,,
{16}6/1-5[8:1],,8,,12,,3,,5-1b[8:1]/2,,4,,65,,7,,
{16}2,4,3,6,5,7,4,5,3,4,2,6,4,7,5,6,
{16}1b^4[8:1],,,,8,,8,,5,6,5h[8:1],,4-2[8:1],,,,
{16}8^5[8:1],,,,1,,1,,4,3,4h[8:1],,5-8[8:1],,,,
{16}1^4[8:1],,,,8,,8,,5,6,4h[8:1],,3-6[8:1],,,,
{16}8^5[8:1],,,,1,,1,,4,3,5h[8:1],,6-2b[8:1],,,,
{16}7pp4>5[4:6],,,,,,,,,,,,,,,,
{16},,,,,,,,,,,,,,,,
{16}3q6[4:3],,,,,,,,,,,,,,,,
{16}7,,8,,1,,2,,6,,5,,4>8b[4:8],,3<7[8:15],,,,,,,,,,
E
