&title=バイバイ YESTERDAY
&artist=3年E組うた担/TVアニメ「暗殺教室 SECOND SEASON」第2クールOPテーマ
&first=0.35
&des=Ragna
&wholebpm=180
&demo_seek=48.4
&demo_len=31
&des_5=Ragna
&lv_5=13+
&inote_5=(180){8}6-3[8:1],
5,,2-7[8:1],1,,6-3[8:1],5,,
2-7[8:1],1,,6h[4:1],,5,7,3-8[8:1],
2,,7-4[8:1],6,,3-8[8:1],2,,
7-4[8:1],6,,3h[4:1],,1,4b/8b,,
,7pp2[16:8],,,,,,4h[8:3],
,,3-6[8:1],,,,,,
7-5[8:1]/5-3[8:1],,,,2V46[4:1]/4,,,,
8v7[16:3]*v1[16:3],,,,,,65,74,
,1,1-3[8:1],,7V13[16:3],,5z1[16:5],,
,,,,7-5[8:1]/8,,5,,
3-1[8:1]/4,,1,,8-4[8:1]/7,,4qq1[2:1]*pp7[2:1],,
,,,,,,18,27,
,3qq6[2:1],,,,,,7h[8:3],
,,8p1[16:3],,,,,,
7^2[8:1]/2,,,,3>6[4:1],,,,
5qq3[16:3]*pp7[16:3],,,,,,12,38,
,2,2^7[8:1],,6^3[8:1],,3<2[2:1],,
,,,,4-1[8:1],,,,
2^4[8:1]/4,,6,,7^5[8:1]/5,,3,,
4^7[8:1]/1h[2:1],,,,8,,27,,
5p1[8:1]/4h[2:1],,,,{16}8,7,6,5,4,3,2,1,{8}
8<4[4:1],,4>8[4:1],,8,,4,,
3q8[8:1]/7h[2:1],,,,{16}1,2,3,4,5,6,7,8,{8}
1>5[4:1],,5<1[4:1],,1,,5,,
7p1[8:1]/3h[2:1],,,,{16}8,7,6,5,4,3,2,1,{8}
8-4[8:1],,4,,3^6[8:1],,6,,
7p2[8:1],,2,,1s5[4:1],,5,,
8z4[4:1],,4q8[16:3]*q1[16:3],,,,,,
1q5[8:1]/8h[2:1],,,,{16}6,7,8,1,2,3,4,5,{8}
6-3[8:1],,2>7[4:1],,1,,4,,
8p3[8:1]/1h[2:1],,,,{16}2,1,8,7,6,5,4,3,{8}
2-7[8:1],,6<3[4:1],,5,,8,,
4-2[8:1]/5-3[8:1],,,,1pp2[4:1],,5,,
8qq7[4:1],,4,,2V48[4:1],,8V24[4:1]*V64[4:1],,
,,,,6V84[4:1],,4w8[2:1],,
,,,,,,,,
1^6[8:1],,8^3[8:1],,5-1[8:1]*v8[8:1],,,,
,3-5[8:1],3-1[8:1],,,6-4[8:1],6-8[8:1],,
,,5b-2[8:1]*-8[8:1],,,,,1pp6[16:8]/8p6[16:8],
,,,,,,,,
8-6[8:1],6V83[4:1],8,3-6[8:1],,,,,
1-3[8:1],3V16[4:1],1,6-3[8:1],,,,,
2V48[4:1]/8V62[4:1],,8v1[4:1]/2v1[4:1],,,,,,
7V51[4:1]/1V37[4:1],,1V38[32:9]/7V58[32:9],,,,,,
1^6[8:1],,8^3[8:1],,5p8[8:1]*p1[8:1],,,,
,3^5[8:1],3^1[8:1],,,6^4[8:1],6^8[8:1],,
,,5b^2[8:1]*^8[8:1],,,,,1qq3[16:8]/8q3[16:8],
,,,,,,,,
1^3[8:1],3>6[4:1],1,6^3[8:1],,,,,
8^6[8:1],6<3[4:1],8,3^6[8:1],,,,,
7qq7[4:1]/1pp1[4:1],,7v8[4:1]/1v8[4:1],,,,,,
2pp2[4:1]/8qq8[4:1],,2pp1[32:9]/8qq1[32:9],,,,,,
2<6[8:1],,7>3[8:1],,5v8[8:1]*v2[8:1],,,,
,3-7[8:1],3-1[8:1],,,6-2[8:1],6-8[8:1],,
,,5bp1[8:1]*q1[8:1],,,,,1qq4[16:8]/8pp5[16:8],
,,,,,,,,
3-1[8:1],1-7[8:1],7-5[8:1],5-3[8:1],,,,,
6^8[8:1],8^2[8:1],2^4[8:1],4^6[8:1],,,,,
7-5[8:1]/1-3[8:1],,7V13[4:1]/1V75[4:1],,,,,,
2^4[8:1]/8^6[8:1],,2v5[8:1]/8v5[8:1],,2b/8b,,,3^6[8:1],
5,,7^2[8:1],1,,3^6[8:1],5,,
7^2[8:1],1,,3h[4:1],,5,4,6^1[8:1],
8,,2^5[8:1],4,,6^1[8:1],8,,
2^5[8:1],4,,6h[4:1],,8,71,2z6[8:8]/6z2[8:8],
,,,,,,,,
,,,,45,27,45,1b/8b,
{1},E
