&title=ツギハギスタッカート
&artist=とあ
&first=0.033
&des=
&des_2=
&des_3=
&des_4=
&des_5=
&des_6=Colorful Skin
&lv_6=13?
&inote_6=(139){4},{8},,,,,,,,,5h[8:1],
,3h[8:1],,6h[8:1],
C,,,3/5h[8:1],B2,,,6/4h[8:1],
B7,,,7/2,6,5,3,4,
5/4,,,8/3h[8:1],B7,,,1/6h[8:1],
B2,,,7<4[8:1],2,7,{4}B1/B2,
{8}6/3,,,6/2,E8/E4,,,3/7,
E2/E6,,,8-5[8:1],4,3,2,1-4[8:1],
5,6,7,8,{4}1-5[8:1],{8}1/7,8-4[8:1],
,8/3,2,1,8,C,{4}C,
{8}2/7,,,8h[8:1],1,B1/B2,B1/B2,1h[8:1],
8,B8/B7,B8/B7,2,3,4,5,6,
7-4[8:1],,,3,2-5[8:1],,,6,
7-4[8:1],,,2,1-5[8:1],8,7-3[8:1],6,
4x,,,5,6-1[8:1],,,4,
3-8[8:1],,,5,6-2[8:1],7,8-4[8:1],1,
2-5[8:1],1,,6-1[8:1],{4}7,{8}3-8[8:1],2,
,6-1[8:1],5,4,3,2,{4}8qq8qq8qq8[4:3]/1-4[8:1],
1/A8,A8/1-4[8:1],1/A8,A8/4qq4qq4qq4[4:3],
A4/5-8[8:1],5/A4,A4/5-8[8:1],5/A4,
6>5>4>3[4:1],3>2<1<8[4:1],8<7<6>5[4:1],5>4>3>2[4:1],
2>3<4<5<6<7>8[2:1],C,{2}8w4[8:1],
{4}1pp1pp1pp1[4:3]/8-5[8:1],8/A1,A1/8-5[8:1],8/A1,
A1/5pp5pp5pp5[4:3],A5/4-1[8:1],4/A5,A5/4-1[8:1],
4/A5,5-8[8:1],5,1-4[8:1],
1,8-5[8:1],{8}4-1[8:1],3,{4}4,
{8}7/1,2,3,4,,6,5,4,
,5,4,3>2<1<8<6>3[8:7],,,,,,,,,,,,,,7,
8-4[8:1],1,{4}8/2-5[8:1],2/8-4[8:1],
8/2-5[8:1],{8}2/8,1-4[8:1],,1/5,6,7,
8,B1/B2,B3/B4,2h[8:1],B7/B8,6h[8:1],B3/B4,7<5[8:1],
{4}8,{8}3>1[8:1],4,,7<5[8:1],8,7/3>1[8:1],
4,3/7<5[8:1],8,7,{4}3-8[8:1],3/5-1[8:1],
5/3-8[8:1],{8}3/5-1[8:1],4-2[8:1],5,4,8,7,
6,B6/B5,B6/B5,7h[8:1],B2/B1,3h[8:1],B6/B5,2>4[8:1],
,6<8[8:1],,2>4[8:1],,6<8[8:1],,1,
2,3,{4}4,4/6-1[8:1],6/4-8[8:1],
4/6-1[8:1],{8}6/4-8[8:1],5-7[8:1],4,5,1,2,
3,B3/B4,B3/B4,8<5[8:1],7,,,1>4[8:1],
{4}2,{8}8<5[8:1],7,,1>4[8:1],2,1/8<5[8:1],
7,8/1>4[8:1],2,8/1,{4}7-4[8:1],7/1-5[8:1],
1/8-4[8:1],{8}8/2-4[8:1],1-5[8:1],2,1,3,2,
1,B1/B2,B1/B2,7-4[8:1],8,7,3,2-5[8:1],
,6-1[8:1],,4-8[8:1],,7-5[8:1],,1,
{2}2>4[8:1],{8}6,{16}5,6,{8}5,6,
7,8qq6[16:3]*pp2[16:3],,,,1/7,8,1,
{16}2x,3x,4x,5x,{8}6x,7,6/4,{16}6x/4x,5x/3x,{8}4x/2x,4,
5,6bh[4:1],,,,5,4,3,
2,4,3,2,2/5,{16}3,4,{8}3,4,
5,6,,B6/B5,,6,5,4,
3/1,2,6/8,7,1h[4:1]/8h[4:1],,,2h[4:1]/7h[4:1],
,,{4}3h[4:1]/6h[4:1],{8},4h[4:1]/5h[4:1],,,{4}5-7[8:1]/4-2[8:1],
5/4,8h[4:1],1,
2h[4:1],7,6h[4:1],3,
4h[4:1],5,5/B4/B3,6/B2/B1,
4/B6/B5,3/B8/B7,6/B4/B3,7/B2/B1,
{8}3/B6/B5,2,{4}3-7[4:3]*-7[4:3],{8},,,,,,,,,
2,1,8,
{4}7-4[8:1],7/1-5[8:1],1/8-4[8:1],{8}8,1-5[8:1],
2-4[8:1],1,2,6,7,B7/B8,B7/B8,7<4[8:1],
6,,,3>8[8:1],{4}2,{8}7<4[8:1],6,
,3>8[8:1],2,3/7<4[8:1],6,7/3>8[8:1],2,3/7,
{4}5-7[8:1],5/4-2[8:1],4/5-7[8:1],{8}4-8[8:1],3-1[8:1],
4,3,7,8,1,B1/B2,B1/B2,6,
5/4,3,5/4,3/6<8[8:1],,6/3>1[8:1],,3/6>4[8:1],
,3>1<7[4:1],,7<5[8:1],{2}5>3[8:1],
{4}7-5[8:1],7/1-3[8:1],1/8-4[8:1],8/7-5[8:1],
{8}7/1-3[8:1],8-4[8:1],1,8,1,B2/B1,B2/B1,7>1[8:1],
6,,,3<5[8:1],{4}2,{8}7>1[8:1],6,
,3<5[8:1],2,3/7>1[8:1],6,7/3<5[8:1],2,3/7,
{4}8-4[8:1],8,7/8-4[8:1],{8}8/1,2>5[8:1],
,2,1,8,{4}7<4[8:1],{8}7,1-5[8:1],
{4}2,{8}8-6[8:1],7,,4-2[8:1],,4-8[8:1],
,4,,1,2,B3/B4,{4}B3/B4,
{8}4/7,{16}6,4,{8}5,3,4,3,,6/3,
,4,5,6,{16}7x,6x,5x,4x,{8}3x,2,
{4}1h[4:1],B8/B7,8h[4:1],B1/B2,
2h[4:1],B8/B7,7h[4:1],B1/B2,
{8}2/5,{16}3,5,{8}4,6,5,6,,3/6,
,5,4,3,{16}2x,3x,4x,5x,{8}6x,7,
{4}3h[4:1],B8/B7,6h[4:1],B1/B2,
5h[8:1]/4h[8:1],{8}B5/B4,6h[8:5],5,5,4,4,
3,,,3>1[8:1],3,,,3<5[8:1],
3,,,7<5[8:1],7,8,1,2>4[8:1],
2,,,6<8[8:1],6,,,6>4[8:1],
6,,,2>4[8:1],2,1,8,7<5[8:1],
7,,,3/6h[8:1],B2/B3,,,6/3h[8:1],
B7/B6,,,7,8,1,{4}2,
{8}2,3h,,3,{4}4h,{8}4,5h,
,6,6,5,5<6[128:1],4,{4}3,
E
