&title=Ouvertüre
&artist=USAO & DJ Genki feat. 露恩(CV:河瀬茉希)
&first=0
&lv_5=13+
&des_5=GDTape
&inote_5=
(200){4},,,,{1}3h[1:2]/5h[2:1],
5h[2:1],
4<8[1:1],
8>4[1:1],
4V68[2:1],
{8}2/1,1/2h[8:7],,,,,,,{1}1-5V74[1:1],
{8},,,,4bx/3bx,4bx/3bx,,,6x/2xh[1:2],
,,E8/B7,,,{4}B5/E6,
{8},E1,,,{4}C,E5,
{8}6h[1:2],,,B8/E8,,,{4}E4/B4,
{8},E2,,,{4}B6,C,
{8}1h[1:2],,,B8/B7,,,{4}B3/B4,
{8},E8,,,{4}E7,E6,
{8}5h[1:1],,,B1/B2,,,{4}4,
{2}4V28-6[2:1],5,
{4}5b<3[4:7],4,4,4,
4,4,4,4x,
5xV38b[4:7],6,6,6,
6,6,6,6x,
{8}7x,7,1,1,5,5,3,3,
6/4x,6,2,2,8,8,4,4,
3/5x,2,1/8,7,6/5,4,3/5,6,
{4}3-7[8:1],{8}8,8,{4}8-4[8:1],8b/1b,
2-6[8:1],6/2,8b,{8}7<4[8:1],7,
{4}1,{8}3>8[8:1],3,{2}8-4[8:1]*<5[8:1],
{4}2/6,1/5,{8}2-5[8:1],2,6,7-4[8:1],
7,2,1-5[8:1],1,{4}1<6[8:1],1,
2b,7-4[8:1]/3-8[8:1],7/3,{8}2>5[8:1],2,
{4}6,{8}8-4[8:1],8,{2}4<7[8:1]*>1[8:1],
{4}2/6,{8}3/5,3,3/4,3,5,4,
{4}6-3[8:1],2/6,1-5[8:1],8/1,
8-4[8:1],8/4,2b,1>4[8:1],
1<6[8:1],1-5[8:1],1,8,
2/6,8/4,{8}7-4[8:1],7,3,2-5[8:1],
2,7,8-4[8:1],8,{4}8>3[8:1],8,
7b,{8}8,7,6/5,4,5/3,2,
6,8/7,1,2,{4}3-7[8:1]/4-8[8:1],4/3,
{16}1,6,1,6,2,6,2,6,3,7,3,7,4,8,4,8,
{1}5-1[2:1],
8h[2:1],
7/4h[2:1],
{2}6V42[1:1],3,
{8}2V86[4:3],,,B4/A4,,,{4}3,
{2}2h[2:1],4h[2:1],
{8}5h[8:3],,,7h[8:3],,,{4}6,
{2}7/6<4[16:11],5,
{8}5-1[4:1],,,3h[8:3],,,,,{4}4/3h[4:1],
4,{8}4,5,{4}4/6,
5/6h[4:1],5,{8}5,4,3/5,6,
{4}7/4-8[8:1],7/4,6/1-5[8:1],6/1,
{8}8,7,6/5,4,5/3,2,1/8,7,
4,4,6,6,{16}3,5,3,5,2,6,2,6,
{4}1b-5[8:1],1/7b-3[8:1],7/2b-6[8:1],2/8b,
1/7<4[8:1],7/8,7/1>4[8:1],1/8,
2/7-3[8:1],7/1-5[8:1],1/8,{8}7,7,
6/5,{16}3,4,{8}2,1/5,{16}6,5,{8}7,8/4,3,
{4}8b-4[8:1],4bw8[8:1],,2/6,
{8}5h[4:1]/3bh[4:1],,,3h[4:1]/5bh[4:1],,,{4}6/2b-6V48[4:3],
,,,7,
{8}8h[4:1]/7bh[4:1],,,6-4[8:1]/1-4[8:1],,6/1,,8/7pp4[8:5],
,,,,,,,,{1}3bh[2:1]/4b-8[4:1],
6bh[2:1]/5b-1[4:1],
{4}8/7,{8}6/1,2>5[8:1]/5-1[8:1],,5/2-6[8:1],,2/8-5[8:1]*-4[8:1],
,8,,2/6,{4}2-8[8:1]/6-8[8:1],2-4[8:1]/6-4[8:1],
6/2,8b/1b,{8}2/5,{16}3,4,{8}2,1/8,
7-4[8:1],7,2<7[8:1],2,5-1[8:1],5,2,2,
3-5[8:1],8,3,7-4[8:1],2,7,1,8,
1,{16}6,5,{8}7,1/8,{4}7-4[8:1]/3-8[8:1],7/3,
5/1-5[8:1],1b/8,4/8-4[8:1],1b/8,
{8}2x/5x,{16}3,4,{8}3,6-1[8:1]/2-6[8:1],,2/6<4b[8:3],,8b,
,5,6,7h[4:1],,5,4,5/3h[8:3],
,5,6,7,{16}4,3,2,1,5,6,7,8,
{4}1/5,6b/5b,{8}7/4,{16}6,5,{8}7,8/1,
2-5[8:1],2,7>2[8:1],7,4-8[8:1],4,7,7,
6-4[8:1],1,6,2-5[8:1],7,2,1,8b-4[8:1],
,8b<5[8:1]*>3[8:1],,8b,,2/6,{4}6/2h[4:1],
8-4[8:1],8b/1,5/1-5[8:1],8b/1,
{8}8,7,6/5,4,3/5,6,5/7,4,
{4}7b-3[8:1],6b-2[8:1],5b-1[8:1],{8}4x,{16}4x,3x,
{4}2x-6b[8:1],2/8-4b[8:1],8/2,1-5[8:1],
{1}1b/8h[1:1]`Cf,
{8}4,4,,,{2}3h[4:1]/5h[4:1],
{4}6/2-4[8:1],6/2,6/1-5[8:1],6/1,
7-4[8:1],7/8,1/2-5[8:1],2/7,
3/7-5[8:1],3/7,3/8-4[8:1],{8}3/8,{16}2,2,
{8}7-3[8:1],7,2-5[8:1],2,6-1[8:1],6,2,2,
2/8,{16}1x,1x,{8}1x,2x/8x,{4}3x/7x,{8}7-4[8:1],7,
3-7[8:1],3,6-1[8:1],6,2-5[8:1],2,8,8,
7<4[8:1],8,{4}7/1,{8}2/8,2/8,{4}2/8h[4:1],
3-6[8:1],7/3,3/8-4[8:1],1/8,
2b/6b,{8}8/1-5[8:1],1,{4}7-3[8:1]*-4[8:1],7,
2-5[8:1]/8-6[8:1],2/8,{16}7/4,,,6x,{8}5x,6x,
{4}4/7v4[8:1],7/3>8[8:1],3/7,{8}7,{16}7,5,
{8}6,{16}2,4,{8}3,3/4,5/2-5[8:1],1,{4}2/6,
8-5b[8:1],2/8-3b[8:1],6/8,{8}7,7,
2-5[8:1],2,6-1[8:1],6,4-8[8:1],4,{4}7,
{8}6/1,{16}7,8,{8}7,1,6/2,5,{16}2,4,3,4,
{4}2b-6[8:1],2/7b<4[8:1],7/1b-5[8:1],1bw5b[8:1],
{2}1bx,{16}3,7,3,7,2,8,2,8,
3,7,3,7,2,6,2,6,1x,1x,,5x,{8}5x,{16}2,4,
{4}2-5[8:1],2/6h[8:1],1/6h[8:1],{8}8/7,{16}7,8,
{4}6v1[8:1],6/2>5[8:1],{2}2b/8xh[2:1],
{4}1b-5[8:1],1/8,{8}7-4[8:1],1,7,2-5[8:1],
7,2,6-1[8:1],4,6/2-5[8:1],2,{4}8,
{8}7,7,5,5,4/6h[8:1],4,6/4h[8:1],6,
{16}4,5,3,6,2,7,1,8,{8}1b,2b/8b,{4}3b/7bh[#0.3000031],
(195){8}3,4,5,6,(192.5)3,4,5,6,
(180)3,4,5,6,(170){4}3,(165){8}4,5,
6,5,4,(150)3,(135)6,5,(125)4,3,
(120)6,5,4,3,{2}6h[2:3],
E
