&title=Trust in you
&artist=sweet ARMS
&first=0
&des=Himekawa Yoshino
&lv_5=13+
&inote_5=(190){1},
{1}4<4[8:13],,
{1}8<8[8:13]*<8[8:13],,
{1}3<6[2:1],
{1}8>3[2:1],
{1}5<4[2:3],
{1},
{1}7>2[2:1]*>2[2:1],
{1}4<7[2:1]*<7[2:1],
{1}1>8[2:3]*>8[2:3],
{1}1>4[2:1],
{8}4b>1[16:5]/8b<5[16:5],,,,,,,8b-4[4:1]/4b,
{8},,,,6h[4:1],,5,,
{8}7b/4b,,,,3h[4:1],,4,,
{8}5b/2b,,,6h[8:5],{6}5,5,5,
{8}5b>2[4:1],,,,8,8,1,2b/7b,
{12},,1,2,3,4,{6}65,65,65,
{8}6b/5b,,,3,43,,45,,
{8}4b/5b,,3b/6b,,2b/7b,,{16}1,8,1,8,
{8}1b-5[8:1],,17,,6,6>3[8:1],4,6,
{8},2,28,,1-5[8:1],7,1,,
{8}6-2[8:1],,64,,1-5[8:1],7,1,,
{8}6-2[8:1],,64,,8-4[8:1],6,8,,
{8}1b-5[8:1],,13,,3,3<6[8:1],4,3,
{8},7,71,,8-4[8:1],2,8,,
{8}3-7[8:1],,35,,1-5[8:1],3,1,,
{8}3b,,24,3b,,35,4b,,
{8}54,54,54,,12,12,78,78,
{8},2,4b/3b<2[16:7],,,,,,
{8}5,5,5,5,3,3,3,3,
{8}4,4,4,4,2h[8:1],4,3h[8:1],5,
{8}4,4,4,4,6,6,6,6,
{8}5,5,5,5,6h[8:1],4,7h[8:1],5,
{8}6pp4[2:1],,4,4,,2,2,,
{8}3qq5[2:1],,5,5,,7,7,,
{8}8<5[8:1],,2>5[8:1],,1-5[8:1],,3,,
{8}5s1[2:1],,1,1,,4,4,,
{8}2-4[8:1],2,8,8,6-8[8:1],6,4,4,
{8}2pp4[8:1],2,8,8,6-1[8:1],6,4,4,
{8}7-5[8:1],7,1,1,3-1[8:1],3,5,5,
{8}7v4[8:1],7,1,1,3v8[8:1],3,5,5,
{8}7qq8[2:1],,1,1,,3,3,,
{8}1-4[8:1],,7-4[8:1],,8>3[8:1],,8<5[8:1],,
{8}8,,2-5[8:1],,8-5[8:1],,1>4[8:1],,
{8}1<6[8:1],,1-4[8:1],,1-6[8:1],,1b,,
{8}25,34,,25,34,,16,3b<2[8:5]/4b,
{1},
{8}74,65,,74,65,,83,6b>7[8:5]/5b,
{1},
{8}2bpp8[8:5]/5b,,,,1,,,4b,
{8},,2>5[8:1],,4,,6-1[8:1],,
{8}8b,,2,21,,{16}3,4,3,4,3b,,
{8},2-5[8:1]/6-1[8:1],26,,,7-3[8:1]/3<6[8:1],,7b/3b>7[4:1],
{8},,4,4,62,7<4[8:1]/3>8[8:1],,7b>3[4:1]/3b,
{8},,6,6,84,7v2[8:1]/3<6[8:1],,7b/3b>6[4:1],
{8},,4,3,25,7-4[8:1]/4-8[8:1],,7b>4[4:1]/4b,
{8},5,5,,7,7pp5[16:7]/4qq6[16:7],,,
{8},,,,7,5,2,4-8[8:1],
{8},1,1,,7-3[8:1],5,7,,
{8}2-6[8:1]/4-8[8:1],,24,,7-4[8:1],3-8[8:1],7,3b,
{4},{32}1b,2,3,4,5,6,7,8,1,2,3,4,5w1[8:1],6,7,8,{4}1,
{8},,73,7v2[8:1]/3v6[8:1],,7-4[8:1]/3-8[8:1],,7b/3b<7[4:1],
{8},,,3,38,2-6[8:1]/6>3[8:1],,2b/6b<3[4:1],
{8},,5,6,74,2-5[8:1]/5-1[8:1],,2b<5[4:1]/5b,
{8},4,4,,2,2q4[32:13]/5<4[32:13],,,
{8},,,,6,5qq6[8:3],,8b,
{8},7,7,,25,3,47,6,
{8}1b-6[8:1]/5,,7,5b-2[8:1],,3,1b<6[8:1],,
{8}7,5b>2[8:1],,3,1-6[8:1],1,5pp1[8:7]*pp1[8:7],5,
{8}2b,,,,,,,3V58[8:5]*V58[8:5]*V15[8:5],
{1},
{8}1w5[8:1],28,1,,7-4[8:1],1-5[8:1],7,1,
{8},84,26,,6-1[8:1]/5-1[8:1],4,56,,
{8}2-5[8:1]/8-4[8:1],,28,,2-7[8:1]/6-3[8:1],,26,,
{8}8>3[8:1]/4<7[8:1],,84,,4V28[8:1]/8V64[8:1],,48,,
{32}1b,2,3,4,5,6,7,8,{8}1w5[8:1],,1b,,3b/7b,1bpp8[1:2]/5bpp4[1:2],
{1},,,,
E
