&title=レッド・パージ!!!
&artist=P.I.N.A.
&first=0
&des=KuSA
&lv_5=13
&inote_5=(145)
{1},
{256},,,,,,,,,,,,,,,
{32}
,,,,,,,,3<6[32:30],,,,,,,,,,,,,,,,,,,,,,,,,,,,,,,,,,,,,,,,,,,,,,,,,,,,,,,,,,
,,,,,,,,,,,,,,,,,,,{128},,,{32}6^3[32:30],,,,,,,,,,,,,,,,,,,,,,,,,,,,,,,,,,,,,,,
,,,,,,,,,,,,,,,,,,,,,,,,,,,,,,,,,,,,,,,,
(124)
{4}
4qq3[2:1]*pp5[2:1],,,,
(135)
{4}
2qq8[8:4]/6qq4[8:4],,,,
(139)
{384},
{4}
1-5[16:4],,1-5[4:1],,1-5[4:1]*-5[4:1],8,1bw5[12:1],{128}1b,,,,,,,,,,,,,,,,,,,,,,,,,,,,,
{384},,,
(145)
{16}
4/2h[16:3],,,1,2,,8,,5/7h[16:3],,,8,7,,1,,2-5[8:1]/4,,,1,2,,8,,
6-1[8:1],,,5,6,,4,,3q6[8:3]/2qq7[8:3],,,,,,,,,,,,1/8,,2,,3<5[8:1]/8<6[8:1],,,,
8/3,,,,1-5[8:1]/2-6[8:1],,,,12,,,,4/7h[16:3],,,5,7,,8,,2h[16:3]/5,,,
4,2,,1,,7/5-1[8:1],,,6,5,,4,,2-6[8:1],,,1,2,,8,,
5qq3[6:1],,6,,7,,,,5q3[6:1],,6,,7,,,,5-1[8:1],,6,,7,,8,,
12,,38,,6b/1b,,,,
7h[8:1],,1h[8:1],,5h[8:1],,1h[8:1],,7h[8:1],,1h[8:1],,5h[8:1],,1h[8:1],,
8h[8:1],,1h[8:1],,5h[8:1],,1h[8:1],,7h[8:1],,1h[8:1],,4h[8:1],,1h[8:1],,
6h[8:1],,1h[8:1],,3h[8:1],,1h[8:1],,5h[8:1],,1h[8:1],,2h[8:1],,1h[8:1],,
3<6[8:1],,1h[8:1],,,,1h[8:1],,8,,2/7,,3,5,4,6,
5b,,8h[8:1],,4h[8:1],,8h[8:1],,2h[8:1],,8h[8:1],,4h[8:1],,
8h[8:1],,1h[8:1],,8h[8:1],,4h[8:1],,8h[8:1],,2h[8:1],,8h[8:1],,
5h[8:1],,8h[8:1],,3h[8:1],,7h[8:1],,6h[8:1],,7h[8:1],,4h[8:1],,
6h[8:1],,7h[8:1],,6h[8:1],,8pp2[8:1],,5h[8:1],,
,,5h[8:1],,1h[4:1],,{32}3,4,5,6,7b,,,,{8},
2,4,1,4,2/3,2-5[8:1]/3v8[8:1],,2/3,,7,8,1,25,4-2[8:1]/7-5[8:1],,74,,
1,1-3[8:1]/5-7[8:1],,5v8[8:1]/1v4[8:1],,51,,
6-1[8:1],1-4[8:1],4<2[4:1],3h[4:1],,,4,4,
8-5[8:1],8,3,2,8-3[6:1],8,5,6,8<5[8:1],8,3-5[12:1],2-8[12:1],,,
6,8,1/7,2,1/3,4,1/3,8,1/7<4[8:1],6,2<7[8:1],3,5s1[4:1],5h[8:3],,,,2,
7,5,8,5,76,7/6>1[8:1],,7h[4:1],,8h[8:1],5h[8:1],4h[8:1],1,8/2,,
{9999}4v1[8:1],{8}4?-6[8:1],,4,,
7,6-8[8:1]/2v5[8:1],,2/6,,3-8[8:1],8-5[8:1],5qq1[16:7],6h[8:3],,,,
8b,,
{16}
3,4,2,,6,5,{8}7-3[8:1],7,1b,1b,2v8[8:1],2,7p3[8:1],6>4[8:1],,,1,1h[8:4],,
3,3,4,5h[8:1]/1h[8:1],,3h[8:1]/7h[8:1],,1/7,8/6,57,4<1[16:4]*v1[16:4]/6,,,,,
1/2,,4/5,,7/8,,4/5,,1/2,3,4/5,6,78,6,5/4,3,
1/2,13,14,54,46,47,78,71,72,23,24,25,4/5,36,27,1h[8:7]/8,6h[8:7],,,,,,,
3h[8:7],8h[8:6],,,,,,,,{48}1b,2,3,4h[32:22],,,,,,,,,,,,,,,,,,,,,8b,7,6,5h[32:6],,,,,,,,,
{8}
,,3/8>3[8:1],,5/8<5[8:1],,4-1[8:1]/8,,5/4,,
7/8,6,12,3,4/5,2/6,8h[4:1]/3b,,
2h[8:1],8-4[8:1],6h[8:1],8,5h[8:1],1-6[8:1],3h[8:1],1,4h[8:1],7-3[16:2],
3^8[8:1],7,1b,,
6-1[8:1],8h[8:3],6b,,2,3,8h[8:1]/4,2,1h[8:1]/6,4,
3/5,6,2/5,7,5b/1b-4[8:1],3b/7b,5b/1b,,
7-1[8:1],8,5-3[8:1],4,6-2[8:1],7,8,1,4-6[8:1],5,3-7[8:1],2,
5,6,8,17,6>3[8:1]/2,3-7[16:2],,,,3-7[8:1],4,2h[4:1],,3-7[8:1]*-7[8:1],4,2,
1bw5[8:1],,,,
7h[8:1],1-5[8:1],3h[8:1],1,4h[8:1],8-3[8:1],6h[8:1],8,5h[8:1],2-6[16:2],
6^1[8:1],2,8b,
{16}
,6,5-8[8:1],,1,,5,,,3,4-1[8:1],,8,,4,,,6,5-1[8:1],,2,,5-7[8:1],,3,,5-1[8:1],,
4>2[8:1],,5-7[8:1],,4p8[8:1],,5,,4,,5h[4:1],,,,7>4[4:1],,,,57,,,,1<4[4:1],,,,
1/6,,,,8>5[4:1],,,,8-5[8:1]/3,,,,8b,,,,
{8}
4,6-2[8:1],4,7h[4:1],,3-7[8:1],5,2h[4:1],,
6,3-6[8:1]/7<4[8:1],,3^8[8:1]/7-2[8:1],,3/7,,3b/7b,,,
{16}3,,4/2h[16:3],,,5,3,,6,,4/7h[16:3],,,4,6,,3,,1V35[8:1]/5,,,,
1/7h[1:1],,,,5,,3,,1,,3,,5,,,,2h[1:1],,,,4,,6,,8,,6,,4-1[16:2],,,,,,,,
4/3h[16:3],,,5,4,,6,,5/7h[16:3],,,4,6,,3,,5/2h[16:3],,,5,3,,6,,8V64[8:1]/4,,,,
8/3h[1:1],,,,1,,7,,5,,7,,1,,,,6h[4:3],,,,8,,2,,4,,2,,
8-3[8:1]*-5[8:1],,,,8b,,,,3pp5[16:3],,,5>8[4:1],3,,7,,8q4[16:3],,,,
6pp6[4:1],,,,6q2[16:3],,,,3pp3[4:1],,,,3>8[8:1],,,,7,,,,5h[16:3],,,1,5q3[4:1],,
2,,3p5[4:1],,,,5,,,,4>6[4:1],,,,6<4[4:1],,,,4,,,,6b,,,,
6qq4[16:3],,,4<1[4:1],6,,2,,1p5[16:3],,,,
3qq3[4:1],,,,3p7[16:3],,,,6qq6[4:1],,,,6<1[8:1],,,,2,,,,
5,,5,,46,,37,,2v5[8:1]/8v5[8:1],,,,28,,,,4,,4,,3/5,,2/6,,1v4[8:1]/7v4[8:1],,,,
1>8[4:5]/7,,,,1b/5h[4:5],,,,{1},{8},,E
