&title=まっしろな雪 (feat. 水瀬ましろ)
&artist=Halozy
&first=0
&des=differ
&des_5=differ
&demo_seek=87
&demo_len=16
&lv_5=14
&inote_5=(170)
{1},
{8}2,4,3,5>3[8:1],,,,,2,4,3,6>4[8:1],,,,,2,4,3,6,5h[4:1],,7,,2,4,3,8>2[8:1],,,,,
7,5,6,4<6[8:1],,,,,7,5,6,3v5[8:1],,,,,7,5,6,2>5[16:3],,,,7,7,5,6,1,2h[4:1],,3x,,
8b,7,5,6,
{16}3,4,,4,3,,5,,2,,4,,3,,6,,6,5,,5,6,,4,,7,,5,,46,,2,,2,4,,4,3,,5,,
46,,3,,2,,17,,5,6,,6,4,,2,,35,,6,,46,,4,,35,,2,,46,,7,,
5,7,5,7,4,6,4,6,3,5,3,5,2,4,2,4,
{32}1,2,3,4,5,6,7,8,1,2,3,4,5,6,7,8,1,2,3,4,5,6,7,8,1,2,3,4,5,6,7,8,
{16}4bw8[8:1],
,,,,,,,2,1,2,,8b,,7,,
5-7[8:1],,1-5[8:1],,5,,1,,8v1[8:1],,1-3[8:1],,8b,,,,4<6[8:1],,,,2,3,4q8[8:1],,,,
{24}1x,2x,3x,4x<7[8:1],,,,,,
{16}4>1[8:1],,8-3[8:1],,4,,8<5[8:1],,,,8>3[8:1],,4-7[8:1],,8,,
4qq3[8:1],,8,,4<7[8:1],,5,,24,,3,,8,8,4,,
4-2[8:1],,8-4[8:1],,4,,8,,1v2[8:1],,2-8[8:1],,1b,,,,5>3[8:1],,,,7,6,5p1[8:1],,,,
{24}8x,7x,6x,5x>2[8:1],,,,,,
{16}5<8[8:1],,1-6[8:1],,5,,1>4[8:1],,,,1<7[8:1],,6qq5[8:1],,1,,
6<1[8:1],,2,,6,,3,,2<3[4:1],,1,,2/8b,,,,
8-4[8:1],,3-8[8:1],,8,,3,,6,,7,,4<7[8:1],,,,2/4>1[8:1],,3,,
4v5[8:1],,5-7[8:1],,4,,,,1>4[8:1],,,,1<6[8:1]/7,,,,1-4[8:1],,4-7-5[4:1],,
1x,,5-2[8:1],,,,,,
8-5[8:1],,5-7[8:1],,8-3-1[16:3],,,,8w4[8:1],,7,,8b,,,,
1-5[8:1],,6-1[8:1],,1,,6,,3,,2,,5>2[8:1],,,,7/5<8[8:1],,6,,
5v4[8:1],,4-2[8:1],,5,,8,,7>1[8:1],,6,,7,,5,,3,,
1,,1bx-7-2-6-3-5[2:1],,,,,,,,
{2}5w1[4:1],
{8},,28,,
3/4-6[8:1],,2,2,,7,5,,5-3[8:1]/6,,7,7,,2,2,,1,5,6,3<5[8:1],,3,8,7,
56,,34,2,,7,
{16}5,6,5,7,
{8}1-3[8:1],,1,4,,4,3,,2/8-6[8:1],,8,4,5h[4:1],,6<5[4:3],4h[2:1]/7,,,,,,
1,2,,4b/6,5,3,2,4b/6,5,3,,
3/4-6[8:1],4,2,2-4[8:1],,2,7,,5-3[8:1]/6,,5,7-4[8:1],,17,2,,
2<8[8:1],5,6,7p4[8:3],,7,8,1,
3,,34,2,6,7,5,4<2[2:1]/6h[2:1],,,,,,6,37,,5,5-2[8:1],7,5,,1<3[8:3]b,8,17,
,E8,,E3,E5h[2:1]f,,,,1w5[2:1],,,,,,,,
34,2q7[8:1],1,8>5[4:1],,68,6,,56,7p2[8:1],8,1/7>5[4:1],,7x,,,
6,,3<6[8:1]/5,4,1,,7/5pp4[4:1],,8>6[8:3],,,,,E1,E2,E3,
34,2q7[8:1],1,8>5[4:1],,68,6,,
56,4/7p2[8:1],83,1b<3[4:1]/7,,1x,,,7v4[8:1],,3,2<6[4:1],,6>8[8:3],,8,
,5,5h[4:1],,4,E7,E6,E5,
65,7p2[8:1],8,1<4[4:1],,31,3,,43,2q7[8:1],1,8/2<4[4:1],,2x,,,
3,,6>3[8:1]/4,5,8,,2/4pp3[4:1],,1>7[8:3],,,,,E1,E8,E7,
65,7p2[8:1],8,1<4[4:1],,31,3,,
43,5/2q7[8:1],16,8b>6[4:1]/2,,8x,,,2v5[8:1],,6,7<4[8:1],,78,,1,
{24}1x,2x,3x,4x,,,7,,,7x,6x,5x,4x,,,
{16}
3>4[8:3],,12,,3b/Cf,,,,,,8,,7,,6,,2<3[8:3],,17,,2b/Cf,,,,,,8,,7,,6,,
1<3[8:3],,26,,1b/Cf,,,,,,7,,8>6[4:1],,,,28,,,,1x<6[8:1],,6x>3[8:1],,1b,,,,,,7,,
6<5[8:3],,87,,6b/Cf,,,,,,1,,2,,3,,7>6[8:3],,82,,7b/Cf,,,,,,1,,2,,3,,
8>6[8:3],,73,,8b/Cf,,,,,,2,,1<3[4:1],,,,71,,,,8xp4[8:1],,3x>8[8:1],,8b,,3b,,,,,,
3>4[8:3]/4,,12,,3b/Cf,,,,,,8,,7,,6,,2<3[8:3]/6,,17,,2b/Cf,,,,,,8,,7,,6,,
1<3[8:3]/7,,26,,1b/Cf,,,,,,7,,8>6[4:1],,,,28,,,,1x>4[8:1],,6x<1[8:1],,1b,,6,,,,5,,
6<5[8:3]/4,,87,,6b/Cf,,,,,,1,,2,,3,,6>7[8:3]/2,,53,,6b/Cf,,,,,,4,,3,,2,,
8>6[8:3]/2,,73,,8b/Cf,,,,,,2,,1<3[4:1],,,,71,,,,
{24}1,8,7,6,5,4,3,,,8>3[8:1],,,,,,,,,
{8}4,5,6,
47,5-3[8:1],6,7-4[8:1],,1,1,,25,4-7[8:1],3,2-5[8:1],,7,7,,
4/6-4[8:1],,3,,2-5[8:1]/5,5,2,,8-4[8:1],,8,1h[4:1],,3x,2x,5x,
52,4-6[8:1],3,2-5[8:1],,8,8,,74,3-1[8:1],6,7-4[8:1],,2,2,,
5/3-5[8:1],,6,6,4-1[8:1],7,4,,8-3[8:1],2,8,1,4h[8:1],3x,6x,2x,
47,5v3[8:1],6,7<4[8:1],,1,2,,25,4-7[8:1],3,2v5[8:1],,7,7,,
4/6-8[8:1],,3,,2-5[8:1]/5,2,6,,8-4[8:1],,8,2h[4:1],,4x,3x,7x,
62,4-6[8:1],3,2-5[8:1],,8,8,,74,3>8[8:1],6,7-4[8:1],,1,2,,
5/3-5[8:1],,3,6,4-1[8:1],7,4,,
{16}8b,,1,6,1,,7,,2-4[8:1],,4-8[8:1],,,,,,
{8}7<5[8:1],,,4h[4:1],,,5,,2>4[8:1],,,5h[4:1],,,4,,
6>4[8:1],,,2h[4:1],,,1,,3<5[8:1],,,7h[4:1],,,8,,
5<7[8:1],,,4h[4:1],,,8,,4>2[8:1],,,5h[4:1],,,1,,
4<6[8:1],,,3h[4:1],,,7,,1>3[8:1],,,8h[4:1],,5,6,3x-6[4:1],
