&title=Sayang (Sped up ver.)
&artist=Via Vallen
&first=0
&des=Farato
&lv_5=13+
&inote_5=(175)
{2},1>8[1:4],{2},,,,,,,3qq5[1:3],,,,,,,
{2}4h[2:1],6V48[1:1],3,2,1V73[1:1],5,6,7,8h[2:1],2V84[1:1],7,6,5,6V84[1:1]/4V26[1:1],,,3,2h[1:1],6,7pp4[1:2],2qq5[2:3],,,,
{4},63,5/4h[2:1],,3h[2:1],,2h[2:1],,1h[2:1],,3pp8[2:3],,,,,,,,
{8}3,4,2,2h[4:1],5,6,6h[4:1],4,3,7h[4:1],2,1,8-5[8:1],1,8,2,4h[8:1]/3h[8:1],,5h[8:1]/6h[8:1],,34,2,34,5,56,7,56,4,3-1[8:1],3,4-8[8:1],4,,{16}2,1,2,,
{8}8,3h[4:1],7,7,4h[4:1],6,6,3,42,6,57,4,3,2-4[8:1],2,1-5[8:1],1,2,{16}3,4,3,,6,5,6,,3,4,2,,6,5,7-1[8:1],,7,,7,,3,,2h[8:1]/4h[8:1],,,2h[8:1]/4h[8:1],,,35,,35,,46,,46,,7,,7h[8:1]/5h[8:1],,,7h[8:1]/5h[8:1],,,7/5,,
{16}4,8,4,8,3,7,3,7,{8}2-4[8:1],1-5[8:1],2-6[8:1],1-7[8:1],2-4[8:1],1-5[8:1],2,1,
{8}3h[8:3],,,4,35,5,64,4,35,4,
{16}6/4-2[8:1],,5,,4/7-5[8:1],,8,,7/1-5[8:1],,2,,18,,,,
{16}8<5[8:1],,2,,8-4[8:1],,3,,8>3[8:1],,2,,8-4[8:1],,4,,8,,,,2,7,2,7,1,8,1,8,1,2,3,4,8,7,6,51,4,2,5,3,6,4,7,5,6h[2:1],,,,,,,,
{16}5,6,5,6,4,7,4,7,3,8,3,8,2,1,2,1,
{16}2,3,4,5,6,7,8,1,26,5,4,3,2,1,8,7,4,6,3,5,2,4,2,3,4,5,6,7,8,1,26,5,4,3,2,1,8,7,
{8}6/2,2,7,8,2,1,7,
{4}6/2-4[8:1],1-5[8:1]/2,8-4[8:1]/1,8/7-5[8:1],7/1-3[8:1],1-7[8:1]*-6[8:1],1-3[8:1]*-4[8:1],1w5[8:1]*-5[8:1],1b>8[2:1],1,,,
{8}34,2,2h[4:1],4,5,6,57,4,53,2,5,64,3/7-4[8:1],,17,,
{8}65,7,7h[4:1],5,4,3,42,6,54,3,64,7,35,2,74,
{16}6,5,6,,2,4,3,,6,5,7,,1,4,3,,7,5,6,4,5,3,4,2,5,1,6,2,7,3,8,4,1,2,3,4,51,6,7,8,1/5pp2[3:2],,,,,,
{1},
{8}1-5[8:1],,1,,62,{16}2,3,4,,6,,6,5,7,,64,,5,,3V51[4:1],,,,1V73[4:1],,,,,,6>8[2:1],,,,6,,,,8qq4[2:1],,,,,,,,,,{8}1,1h[1:1],,7-3[8:1],,7,,4-8[8:1],,4,3,4,5,6,5,4,3>7[4:1],,7<3[4:1],,,,6-4[8:1],,3-1[8:1]/6,,7-4[8:1]/3,,78,2-5[8:1],,12,8,7,5h[8:1]/6h[8:1],,4h[8:1]/3h[8:1],,{16}3,4,2,5,1,6,8,7,1>8[8:3],,,,18,,,,,,,,
{16}1-3[8:1],,5,5,1-7[8:1],,5,5,1-3[8:1],,5,5,1-7[8:1],,5,5,1,,5,5,
{16}1,7,1,7,2,8,2,8,5,7,5,7,4,6,4,6,3,5,3,5,2,4,3,5,4,6,5,7,{8}4/8-4[8:1],,2-5[8:1]/8,3,7-4[8:1]/2,,1-5[8:1]/7,2,18,,3,3h[4:1],4,4h[4:1],5,5h[4:1],6,6h[4:1],5,4,65,7,43,2,8-4[8:1],8,2-5[8:1]/8,2,2/6-3[8:1],6,1-5[8:1]/6,1,17,,
{8}24,1,8,75,5,5,34,56,6,6,43,3,3,56,1b/2b,4b/5b,8b/7b,5b/4b,61,52,34,8,
{16}2,1,3,8,2,1,3,8,2,1,3,8,,,37,,{24}5,4,5,,,,{16}3,4,2,6,5,7,1,8,2,7,3,6,4,5,3,4,3,4,1,7,1,7,5,6,5,6,2,8,2,8,2,4,3,4,1,5,4,5,8,6,5,6,2,7,4,5,3,6,2,7,1,8,1,8,
{32}1,2,3,4,5,6,7,8,1,2,3,4,5w1[8:1],,,,,,,,5b,,,
