&title=天邪鬼
&artist=Yuta Imai
&first=0
&des=Potato
&lv_5=14
&inote_5=(155)
{4},,,,,,
{16},
(310)
{32},,
(155)
{16}4>5[4:7],,,,,,E6,,,,,,E7,,,,E8,,,,,,E1,,,,,,E2,,,,
{16}4>5[4:3],,,,,,E6,,,,,,E4,,,,Ch[4:1],,,,E7,B6,B5,,E3,B3,B4,,E7,B7,B8,,
{8}4,4,3,3,2,2,1,1,8/1,8,7/2,7,6/3,6,5/4,5,
{16}4,4,3,3,2,2,1,1,8,8,7,7,6,6,5,5,4h[2:1],,,,,,,,,,,,8b,,,,
{16}4,5,4,7,,7,5,6,3,4,2,5,,5,4,6,1,8,2,7,,7,8,6,4,5,3,6,8b-4[8:1],,,,
{16}1-3[8:1]/8,,,,1/5-7[8:1],,,,4-8[8:1]/5,,,,6<3>6[2:1]/4,,,,
{16}6/3,,,,4-1[8:1],,,,4,,,,7-4[8:1],8,,8,7,,,,3/8,,,,2-5[8:1],1,,1,
{16}2>7<2[2:1],,,,8,,,,1,,,,7,,6/5,,3/4,,1/2,,7-4[8:1],8,6,8,7,,,,
{16}2-8[32:3]/6-8[32:3],,,,2V46[4:1]/6,,,,2/6V42[4:1],,,,8-5[8:1],,,,8,,,,
{16}6,,4,4,6,6,5,5,7,7,6,,8,8,1,1,7,7,2,,8,8,8,,4,4,4,,
{16}6b/5b,,2,3b/4b,,1/8,2b/7b,,
{16}3-8[8:1],,,,5,,5,,3-8[8:1],4,,4,3,,6,6,
{16}3-8[8:1],6,,6,3,,7,7,2,,3/4,,6,5,7,,
{16}6-1[8:1],,,,4,,4,,6-1[8:1],5,,5,6,,3,3,
{16}6-1[8:1],3,,3,6,,2,2,7,5,6x,2x,4,3x,7x,5x,
{16}6-1[8:1]/4h[4:1],,,,6,,3,,8-3[8:1],1,,7,8,,5,5,4-7[8:1],
{16}5,,3,4,,1,1,8,2,4,3,5,,2,2,3-8[8:1]/4,,,,,,7,7,6/5,4,,3/4,5,,2,2,
{4}3/4-7-1-5[2:1],E4,E3,E2,
{4}8x-5[8:1]*z4[8:1],,5x-8-3[8:1]/2x-6[8:1],,4x-1[8:1]*-7[8:1],,6x-2[8:1]/2x<4[8:1],,
{4}8x-5[8:1]*z4[8:1],,4x-1-6[8:1]/7x-3[8:1],,5x-8[8:1]*-2[8:1],,7x-3[8:1]/3x>5[8:1],,
{12}4x-7[8:1],,8x,8x-5[8:1],,4x,4x-8[8:1],,1,1,1,1,
{12}1x-4[8:1],,5x,5x-2[8:1],,1x,1x-5[8:1],,6,6,6,6,4,7,1,5,
{24}2,3,4,,
{12}5,2,7,4,
{24}8,7,6,,
{12}4h[1:0],6,8h[1:0],4,2h[1:0],8,3,3,3,7,7,7,
{12}8/3,2,1,7/4,6,5,1/6,8,7,2/5,4,3,2/5,1,6,7/2,8,3,4/7,6,3,2/5,1,6,
{12}4/7,6,5,3/8,2,1,5/2,4,3,6/1,8,7,6/1,5,2,3/6,4,7,8z4[8:1]/3h[4:1],,,,,,
{12}2/4,3,5,6/4,7,5,8/6,7,1,2/8,3,1,2/4,3,3,7/5,6,6,1/3,2,2,8/6,7,7,
{24}1/8,,2,,7,,1/8,,2,3,4,,6x/5x,,7,,4,,7/1,,7,6,5,,
{1}3bxqq4[4:2]/4bxpp3[4:2],
{4}5<1[4:2],,1>5[4:2],C,,
{16}C,,,,4>8[4:2],,C,,,,E7,B6,B5,,,,,,C,,5<1[4:2],,,,C,,,,,,,,C,,,,
{16}3,4,3,4,3,,,,
{8}4V28[4:2],,,7,8V64[4:2],,C,,,,
{16}C,,,,5V71[4:2],,C,,,,E3,B3,B4,,,,,,C,,4V28[4:2],,,,C,,,,,,,,C,,,,
{16}7-4[8:1],,1,,,,3,3,3s7[8:11],,,,,,,,,,,,,,,,,,,,,,,,,,,,,,
{16}1/8,1/8,2v5[8:3]/7v4[8:3],,,,,,,,,,,,,,
{16}2/5,,4,3,4,2,5,4,5,1,6,5,6,8,7,1,7,2,7,,
{16}4,5,2,6,2,1,3,8,5,6,4,7,8,,7,7,1,1,5,5,3,3,8,8,4,4,6,6,2,2,
{12}4,4,4,8qq5[4:1]*pp3[4:1],8,8,8,,,,,,
{16}8,4,6,1,5,3,,7,7/5,,2,2,4b,4,3,,
{16}6-1[8:1],5,7,5,6,2,3,4,7-3[8:1],3,5,1,7,2,2,,
{16}1-5[8:1],,4,4,1,7,7,,4,4/8,,6,6/2,,7/5,,
{16}3-8[8:1],4,2,4,3,7,6,5,2-6[8:1],6,4,8,2,7,7,,
{16}8,1,6,3,8,1h[8:1],,7,3h[8:1],,6,5h[8:1],,7,7/4,,
{16}1-5[8:1],8,2,7,1,6,7,8,2-6[8:1],1,3,8,2,7,7,,
{16}7x-4[8:1],,5,5,7,2,2,,5x,1/5,,3,3,4,1,,
{16}1x/5x,,2x/6x,,3x/7x,,4x/8x,,4,4,8,8,2,2,6,6,
{16}2b,,7,6b/5b,,2,3b/4b,,7b,,2/1,8b/3b,,8/7,6b/1b,,
{16}2,5,3,4,2,,6,5,7,,1,8,,2,2,4,3,,
{16}1/5,1/5,,8,1,6,3,,7/5,7/5,,8/4,8/4,,
{16}7-3[8:1],3,6,4,7,,1,1,4h[8:1],,1,6h[8:1],,3,8h[8:1],,
{16}1,1,1,,5,5,5,,3b/4b,,7,6b/5b,,8/1,7b/2b,,
{16}7-3[8:1],3,6,4,7,,1,1,4,,
{16}1/4,1/4,,6,6,5,7,,6/7,6/7,,4,4,7,2,,2/3,2/3,,8/5,8/5,,
{16}2-6[8:1],6,4,8,2,,
{16}7,7,1h[1:0],5,3h[1:0],1,5h[1:0],7,
{32}2,3,4,5,
{4}6bqq1[8:3]/2bpp7[8:3],,,C,
