&title=AiAe
&artist=DJ'TEKINA//SOMETHING a.k.aゆよゆっぺ
&first=1.11
&des=speckles
&lv_5=14+
&inote_5={4}(180)5,5h[4:1],{8},4,{4}4h[4:1],
6,6h[4:1],{8},4,{4}3h[4:1],
8,1h[4:1],{8},6,{4}5h[4:1],
3h[4:1],6h[4:1],{8}2,7,{16}4,5,4,5,
{4}4h[4:1],7,5/3h[4:1],{8}6,5,
5h[4:1],{4},{8}3,3h[4:1],{4},{8}6,
{4}5h[4:1],2h[4:1],8h[4:1],4,
4h[4:1],5h[4:1],2h[8:1],{16}5,4,5,4,
{4}5h[4:1],3,{8}3h[4:1],5,{4}5h[4:1],
4h[4:1],7h[4:1],{8},5,{4}5h[4:1],
8h[4:1],1h[4:1],7h[4:1],3h[4:1],
6h[4:1],4h[4:1],7,{16}1,8,1,8,
{4}1h[4:1],7h[4:1],{8}4,4,{4}4h[4:1],
6h[4:1],2h[4:1],{8},8,{4}8h[4:1],
4h[4:1],5h[4:1],3h[4:1],4h[8:1],
5/6,4/3,{8}8,{32}8,7,6,5,{16}4,1,4,1,
{2}4bh[2:1],2h[2:1],
8h[2:1],4h[2:1],
1h[2:1],6h[2:1],
5h[2:1],7h[4:1],
8b/1bh[2:1],6h[2:1],
4h[2:1],8h[4:1],
3b/6bh[2:1],1h[4:1],
1/8h[2:1],{8}6,{16}1,8,{4}1,
5h[2:1],4,4h[2:1],6,
7h[2:1],4,2h[2:1],5,
8h[2:1],1,1h[2:1],8,
7h[2:1],5,2h[4:1],4,
{8}5b/4,5,5/6,6,6/7,7,7/8,8,
8/1,1,1/2,2,2/3,3,3/4,4,
{16}5,4,6,3,7,2,8,1,{32}7,6,5,4,3,2,1,8,7,6,5,4,3,2,1,8,
{4}7b/3h[16:1],3h[16:1],3h[16:1],{32}3,4,5,6,7,8,1,2,
{16}3b,6x,3x,6,3,6,3,6,4,5,4,5,4,5,4,5,
3,6,3,6,3,6,3,6,2,7,2,7,2,7,2,7,
4,6,4,6,4,6,4,6,3,5,3,5,3,5,3,5,
2,4,2,4,2,4,2,4,7,5,7,5,7,5,7,5,
8b,1,8,1,8,1,8,1,7,2,7,2,7,2,7,2,
6,3,6,3,6,3,6,3,7,4,7,4,7,4,7,4,
6,3,6,3,6,3,6,3,5,2,5,2,5,2,5,2,
5,4,6,4,6,3,5,3,5,4,{8}6,{16}3x,3x,3x,3x,
3x,5x,3,5,3,5,3,5,2,6,2,6,2,6,2,6,
2,7,3,7,3,7,3,7,4,6,4,6,4,6,4,6,
1,7,1,7,1,7,1,7,2,8,2,8,2,8,2,8,
3,6,3,6,3,6,3,6,4,5,4,5,4,5,4,5,
2b,6,2,6,3,5,3,5,2,4,2,4,3,6,3,6,
1b,5,1,5,2,6,2,6,3,7,3,7,4,6,4,6,
3b,4,3,4,3,5,3,7,3b,6,3,5,3,2,{8}1,
{16}6b,5,{8}6,{16}2b,1,{8}2,{16}5b,4,{8}5,{16}7b,8,7,8,
{8}7-5[16:1],3,{4}7/2h[8:1],{8}4-1[16:1],3,{32}4/6,7,{16}8,{8},{4}2-6[16:1]/7-3[16:1],
7/2,5/4,{16}5,5,5,5,
{8}5-7[16:1],3,{4}5/2h[8:1],{8}1>4[16:1],2,{32}1/8,7,{16}6,{8},{4}8v2[16:1]/7v6[16:1],
7/8,4/3,{16}4,4,4,4,
{8}4-8[16:1],2,{4}4/1h[8:1],{8}2-5[16:1],1,{32}2/8,7,{16}6,{8},{4}8-4[16:1],
8/2h[8:1],3/5,{16}5,5,5,5,
{8}5-8[16:1],4,{4}5/2h[8:1],{8}4-1[16:1],5,{32}4/8,7,{16}6,{8},{4}7-4[16:1]/3-8[16:1],
3/7,1/7,{16}2,2,2,2,
{8}2-5[16:1],3,{4}2/7h[8:1],{8}6v1[16:1],7,{32}6/4,3,{16}2,{8},{4}5p1[16:1]/8<5[16:1],
5/8,7/2,{16}7,7,7,7,
{8}7<4[16:1],8,{4}7/1h[8:1],{8}8v3[16:1],1,{32}8/6,5,{16}4,{8},{4}6<1[16:1]/2v5[16:1],
6/2,2/4,{16}2,2,2,2,
{8}2-7[16:1],3,{4}2/5h[8:1],{8}6-3[16:1],7,{32}6/8,1,{16}2,{8},{4}4-8[16:1]/8-4[16:1],
4/8,7/2,{16}2,2,2,2,
{8}2-4[16:1],2,{32}2/8,7,{16}6,{8},8-6[16:1],8,{32}8/1,2,{16}3,{8},4/5,
4/3,5/6,4/5,{32}3b,2,1,8,{8},{32}7b,6,5,4,{8},{16}8b,
1,8,1,8,3,8,3,7,3,7,3,5,2,5,2,
5b,4,5,4,6,4,6,4,8,7,8,7,2,7,2,7,
4b,6,4,6,3,7,3,7,2,7,2,7,3,6,3,6,
4b,5,4,5,2,7,2,7,4,5,{8}4,3/6,3/6,
{16}7b,8,7,8,6,1,6,1,5,2,5,2,4,3,4,3,
5b,3,5,3,6,4,6,4,8,5,8,5,1,4,1,4,
2b,3,2,3,2,5,2,5,4,5,4,5,4,6,4,6,
3b,8,3,8,4b,7,4,7,3b,8,3,8,1,1,1,1,
1b,7,2,7,3,6,3,6,3,4,3,4,3,7,3,7,
1b,7,1,7,2,6,2,6,3,7,3,7,1,5,1,5,
3b,4,3,4,2,5,2,5,4,7,4,7,2,5,2,5,
4b,5,4,5,4b,7,4,7,2b,7,2,7,2b,5,{8}6,
7b/3b,{16}6,4,5,3,5,3,6,2,6,2,4,5,{8}4,
7b/2b,5/3,4/6,1/2,8/7,5/3,7/2,5/6,
{16}B7,E5,E2,B6,E4,A7,{8}A8,{48}1,2,3,4,5,6,7,8,1,2,3,4,5,6,7,8,1,2,3,4,5,6,7,8,
{4}1h[4:1],6h[4:1],3h[4:1],5h[4:1],
{2}Ch[4:1]/B6h[4:1]/B8h[4:1]/B1h[4:1]/B3h[4:1],{16}1x,1x,1x,1,1-5[8:1],1,1,1,
{4}1>1[4:1]*<1[4:1],1,{16},B8,B2,B7,{4}Ch[4:1],
{8}8h[16:1],7h[16:1],6h[16:1],5h[16:1],{16}4x,4x,4x,4,4-8[8:1],4,4,4,
{4}4<7[16:1],{8}4>1[16:1],2,{16}4s8[8:1]*z8[8:1],6,{4},{8},{2}Ch[4:1]/B2h[4:1]/B3h[4:1]/B7h[4:1]/B6h[4:1],
{16}4x,4x,4x,4,4-8[8:1],4,4,4,
{4}4>4[4:1]*<4[4:1],4,{16},B5,B3,B6,{4}Ch[4:1],
{8}5h[16:1],6h[16:1],7h[16:1],8h[16:1],{16}1,1,1,1,1-5[8:1],1,1,1,
{4}1<6[16:1],1-3[16:1]*-6[16:1],1w5[8:1],1,
{2}B1h[4:1]/B7h[4:1]/B8h[4:1]/B2h[4:1]/Ch[4:1],{16}8x,8x,8x,8,8-4[8:1],8,8,8,
{4}8>2v8[8:1]*<6v8[8:1],8,{16},B1,B7,B2,{4}Ch[4:1],
{8}1h[16:1],2h[16:1],7h[16:1],6h[16:1],{16}5,5,5,5,5-1[8:1],5,5,5,
{4}5>2[16:1],{8}5<8[16:1],7,{16}5p1[8:1]*q1[8:1],3,{4},{8},{2}Ch[4:1]/B4h[4:1]/B6h[4:1]/B5h[4:1]/B3h[4:1],
{16}2x,2x,2x,2,2q6[16:1],2,2,2,
{2}2v7[8:1]*<7[8:1],{16}B5,B1,B7,E4,{4}Ch[4:1],
{8}7h[16:1],7h[16:1],4h[16:1],4h[16:1],5h[16:1]/7h[16:1],4h[16:1]/6h[16:1],{4}5h[16:1]/3h[16:1],
{16}1,8,1,8,{8}1,1,1,1,1,1,
{16}1b,8,2,7,3,6,4,7,3,6,4,2,5,1,6,3,
7,2,8,1,6,3,5,4,7,3,6,4,6,3,{8}3bh[16:1],
{16}7,1,6,2,5,3,5,2,6,3,7,4,6,3,7,4,
6,3,5,5,{8}5h[8:1],2,{32}2,3,{16}4,{8}7,{16}6h[8:1],{8},{32}7,8,
{16}1b,5,2,4,7,3,6,4,7,2,6,5,6,5,4,7,
3,8,3,7,4,6,5,6,5,7,4,7,2,6,3,4,
6,6,2,6,3,5,4,6,2,6,2,5,3,4,1,8,
2,7,2,8,1,6,3,5,4,5,4,5,6,6,6,6,
6b,4,6,3,6,2,7,3,6,5,6,4,6,3,7,1,
8,4,8,3,8,2,6,4,8,3,8,5,8,3,6,4,
2,5,2,6,2,5,4,7,2,6,2,5,2,7,1,6,
{8}3,{16}5,5,{4}5h[8:1],{32}4,3,{16}2,{32}8,7,{16}6,{32}1,2,{16}3,{32}8,7,6,5,
{16}4b,2,4,3,4,2,5,1,4,3,4,8,4,2,6,3,
8,5,8,4,8,2,7,4,8,6,8,4,8,2,5,2,
5,3,6,4,6,5,7,4,6,3,6,1,6,1,{8}5,
{4}5b/4-2[16:1],8-6[16:1],{8}1v4[16:1],{32}B6,B7,{16}E8,{32}B1,C,{16}B4,{8},{2}8bh[2:1],
1h[2:1],
5h[2:1],3h[2:1],
8h[2:1],6h[2:1],
5h[2:1],3h[4:1],
{4}7b/1bh[2:1],6h[8:1],{8}7h[2:1],4,{4}4h[8:1],
2h[2:1],5h[8:1],{8}6h[4:1],4,{4}4h[8:1],
8b/1bh[2:1],6h[8:1],{8}6h[4:1],4,{4}4h[8:1],
{2}8b/3bh[4:1],{32}8,7,6,5,{16}4,2,4,2,{8}4,
{4}1/7h[8:1],2/7h[8:1],4/8h[8:1],3/8h[8:1],
6/1h[8:1],5/1h[8:1],7/2h[8:1],8/2h[8:1],
3/5h[8:1],2/5h[8:1],1/6h[8:1],4/7h[8:1],
6/4h[8:1],5/4h[8:1],6/3h[8:1],5/3h[8:1],
{8}1/8,8,8/7,7,7/6,6,6/5,5,
5/4,4,3/4,3,2/3,2,2/1,1,
{16}4,5,3,6,2,7,1,8,{32}2,3,4,5,6,7,8,1,2,3,4,5,6,7,8,1,
{4}2/6h[16:1],6h[16:1],{2}6h[4:1],
{16}7,2,7,2,7,2,7,2,8,1,8,1,8,1,8,1,
7,2,7,2,7,2,7,2,6,3,6,3,6,3,6,3,
8,2,8,2,8,2,8,2,7,1,7,1,7,1,7,1,
6,8,6,8,6,8,6,8,3,1,3,1,3,1,3,1,
4b,5,4,5,4,5,4,5,3,6,3,6,3,6,3,6,
2,7,2,7,2,7,2,7,3,8,3,8,3,8,3,8,
2,7,2,7,2,7,2,7,1,6,1,6,1,6,1,6,
1,8,2,8,2,7,1,7,1,8,{8}2,{16}7,7,7,7,
7,1,7,1,7,1,7,1,6,2,6,2,6,2,6,2,
6,3,7,3,7,3,7,3,8,2,8,2,8,2,8,2,
5,3,5,3,5,3,5,3,6,4,6,4,6,4,6,4,
7,2,7,2,7,2,7,2,8,1,8,1,8,1,8,1,
6b,2,6,2,7,1,7,1,6,8,6,8,7,2,7,2,
5b,1,5,1,6,2,6,2,7,3,7,3,8,2,8,2,
7b,8,7,8,7,1,7,3,7b,2,7,1,7,6,{8}5,
{16}2b,1,{8}2,{16}6b,5,{8}6,{16}1b,8,{8}1,{16}6,6,6,6,
6,3,6,4,6,3,6,4,6,3,6,4,6,3,6,4,
6,1,6,2,6,1,6,2,6,1,6,2,6,1,6,2,
6,3,5,3,5,3,5,3,6,4,6,4,5,2,6,4,
7,4,7,4,7,2,5,2,5,3,4,3,5,3,5,3,
8,1,7,2,6,3,5,4,6,3,7,2,8,3,7,4,
6,5,7,4,6,5,8,3,7,4,6,5,7,4,6,4,
4,1,2,1,2,1,2,1,4,1,3,1,3,1,3,1,
5,8,5,8,5,7,4,7,4,6,{8}3,{16}6,6,6,6,
6,7,8,4,3,2,1,7,1,6,2,6,2,5,4,5,
4,3,2,8,7,6,5,3,5,2,4,2,4,3,6,3,
6,7,8,3,4,5,6,8,7,6,5,4,3,1,3,1,
5,4,5,4,6,3,7,4,6,4,7,4,5,3,{8}6,
2/7,{16}6,4,5,3,5,3,6,4,6,4,7,5,{8}7,
8/3,{16}4,5,4,5,3,6,3,6,4,7,4,7,{8}3,
2/5,{16}4,3,5,3,{8}4,6/3,{16}2,7,1,8,{8}4,
2/7,{16}5,6,{8}7/4,{16}1,2,{8}3/8,6/3,{16}4/5,4/5,4/5,4/5,
{8}5b/4b-2[16:1],6,4x,7,4-1[16:1],6,4,7,
5-7[16:1],3,5,2,5-8[16:1],2,5,3,
1-3[16:1],7,1,6,1-4[16:1],8,1,6,
8-5[16:1],3,8,4,8-6[16:1],2,8,3,
5b/2b-8[16:1],7,2,6,2-7[16:1],4,2,5,
6-4[16:1],3,6,3,6-3[16:1],2,6,1,
2-8[16:1],8,2,6,2-7[16:1],5,2,5,
6-3[16:1],4,6,2,,{16}6,7,4/8-4[16:1],3,2,1,
{4}8-5[16:1],8,2-5[16:1],2,
7-4[16:1],7,8-3[16:1],8,
5-1[16:1],5,4-8[16:1],4,
7<4[16:1],7,1>4[16:1],1,
5b/8-5[16:1],8,1-4[16:1],1,
7-2[16:1],7,3-6[16:1],3,
7-3[16:1],7,2-6[16:1],2,
5q1[16:1],5,{16}3,4,5,6,1,2,3,4,
{1}5,
