&title=Cult future
&artist=LV.4
&first=0.11
&des=arc.Δ
&lv_5=14
&inote_5=(175)
{4},
{8}4h[2:1]/2h[8:1],,3,3h[2:1],,5,5h[2:1],,4,4h[2:1],,6,6h[8:1],,7/5,,
4h[2:1]/6h[8:1],,5,5h[2:1],,3,3h[2:1],,6,6h[2:1],,2,2h[8:1],,7/1,,
8h[2:1]/2h[8:1],,3,3h[2:1],,7,7h[2:1],,4,4h[2:1],,6,6h[8:1],,5/3,,
4h[8:1]/2h[2:1],,5,5h[2:1],,3,3h[2:1],,6,6h[2:1],,4,4h[8:1],,7/5,,
5/4,5h[8:1],E2/B2,{16}5,4,5,,6h[8:1]/5,,E1/B1,,6,,
E2/B2,,5/4,,6,5,7,,7xh[8:1]/8xh[8:1],,,6xh[8:1]/1xh[8:1],{8},5x/2x,
4/5,4h[8:1],E8/B7,{16}4,5,4,,3h[8:1]/4,,E1/B8,,3,,
E8/B7,,4,5,3,6,{8}B2/E2,8xv5[8:1]*-4[8:1],7x/1x,,,
6/3,3,7/2,2,5/1,1,8/2,3,
7/4,7,6/2,6,5/3,5,6/1,7,
8/4,{16}6,5,6,5,6,,5/1,,3,4,3,4,3,,
7,,7,5,,5,4,,4,2,,2,8,,{1}8h[16:1]/1s5[8:5],
{16},,7x/4x,,6,6,E2/B2,,5,5,B3/E4,,6,6,E2/B2,,5h[16:1],,C,,
3,3,E8/B7,,4,4,B6/E6,,3,3,E8/B7,,4h[16:1],,C,,
6,6,B1/B2,,5,5,B4/B3,,6,6,B1/B2,,5h[16:1],,C,,
3,3,B8/B7,,4,4,B5/B6,,3,3,B8/B7,,4h[16:1],,Cf,,
6,6,E1/A1/E2,,5,5,B4/B3,,6,6,E1/A1/E2,,5,5,C,,
3,3,E1/A8/E8,,4,4,B5/B6,,3,3,E1/A8/E8,,4,4,C,,
6,6,E1/A1/E2,,5,5,C,,3,3,E1/A8/E8,,4,4,
C,,,7/2,,,6/3,,5-1[8:1],4,5h[8:1],,,,,,
6,5,6,5,7,4,7,4,8,3,,3,1,3,,3,
8,2,8,2,7,3,7,3,6,4,,6,5,6,5,,
3,4,3,4,2,5,2,5,1,6,,6,8,6,,6,
1,7,1,7,2,6,2,6,3,5,,3,4,3,4,,
6,5,6,5,7,4,6,4,8,3,,3,2,3,,3,
1,2,1,2,8,3,1,3,7,4,,4,5,4,,4,
6,,6,,5/1,2,7/3,,7,,7,,6/2,3,8/4,,
6xbh[8:1]/2xbh[8:1],,,8b-4[8:1]/4bh[8:1],,,6b/2b,,,,,,
7/1,6,5,4,{8}3<8[2:1]/8,,1,,2,,2,,
8/3>6[2:1],,7,,6,,5,5,
4<1[2:1],1h[8:1],,,2,,{16}2,3,4,5,{8}1h[4:1]/6>1[2:1],,,,8,,7,7,
{4}6p4[2:1]/1,1,2,2,5/3>8[4:1],6,7<4[4:1],{8}1,1,
2q5[2:1],,5,,5,,{16}6,7,8,1,
2xbh[8:1]/5xbh[8:1],,,8bh[8:1]/3bh[8:1],,,6bh[8:1]/1bh[8:1],,,7bh[8:1]/4bh[8:1],,,6x,5x,6x,,
{2}7/1-3-5[2:1],8h[4:1],1<4[2:1],{8}4,,3,3,
2p8[2:1],4h[8:3],,,,,{16}4,5,6,7,{8}8z4[2:1]/1,,,,3h[4:1],,,2,
{4}1v3-5[2:1],,7h[4:1],,6-1[4:1]/4,,5p1[4:1],,
7>4[2:1],,3h[4:1],{16},,2,1,{8}8-4[2:1],,,,6,6,5,5,
{4},Ch[4:3]f,,,{1}1bw5[4:13],{1},,,7pp4>2[4:7],,1qq5[1:1],5w1[2:1],
{4}E1f/E4,E8,E7/2>4[8:1],E6,
E5,E4,{16}7-4[8:1]/E3,,,B2,,,E2,,
{4}C/E1f,E2,8-6>5[8:1]/E3,E4,
E5,E6,{8}E7/3-1[8:1],B7,E8,,
{8}E1f/C,E8,E7,E6,8-5[8:1]/E5,E4,E3,E2,
C/E1f,E2,E3,E4,E5/1-4[8:1],E6,E7,E8,
{16}D1/Cf,D8,D7,D6,D5,D4,D3,D2,
A1/D1/Cf,A8/D8,A7/D7,A6/D6,A5/D5,A4/D4,A3/D3,A2/D2,
A1f/B1,,,7h[16:1]/3h[16:1],,,6/4,,8-4[8:1]b,1,7,2,C,,,,
2x,,4/3,,5,3,6,4,7xh[8:1],,5,6xh[8:1],,4,5x,,
1x/2x,,7/5,,6,4,5,3,4xh[8:1],,2,5xh[8:1],,3,6x,,
7x/8x,,1/2h[8:1],,4,3h[8:1],,5,4xh[8:1],,6,5xh[8:1],,7,6x,,
Cf/1b,,,7b/B3f,,,E6f/2b,,,8b/A4f,,,B7/3b-8[8:1],,B6/3,,E3f,,
7,,6,4,5,3,4xh[8:1],,2,5xh[8:1],,3,6x,,
7x/5x,,8/2,,3,3h[8:1],,4,4xh[8:1],,5,5xh[8:1],,6,6x,,
7x/1x,,4/3h[8:1],,5,4h[8:1],,6,5xh[8:1],,7,6xh[8:1],,8,7x,,
2bx,4,3,7bx,5,6,3bx,4,2-6[8:1],6bx,5-1[8:1],7,2x,,5x,,Cf,,
8/7,,1x,5,2,4,3xh[8:3],,E2,E1,,B3,C,,
8x,,7/4,,6x,3,5,4,7xh[8:3],,B2,E1,,C,E8,,
1x,,6/2,,3x,4,1,8,5xh[8:3],,6,6x,,8,8x,,
4x,,7/3,,6x,5,8,1,4xh[16:5],,3,3x,,1,1x,,
5x,,6/2,,3x,4,3,4,3x,,1,8,2x,8,1x,,
6x,,7/8,,5x,4,6,4,5x,,8,1,8x,1x,8x,,
7x,3,7x,3,6x,2,6x,2,{32}5x,4,3,2,1x,8,7,6,
5x/2x,3,4,5,6x,7,8x,1,{16}8xz4[2:1]/2xb,,,3bx,,,2bx-6[8:1]b,,,3bx,,,,,,,
2,8-4[8:1],,1,,8,2,,3,1-5[8:1],,4,,1,3,,
6/2xh[8:1],7,8,,7/3xh[8:1],8,1,,8xh[8:1]/5,4,3,,7xh[8:1]/4,3,2,,
6,1-5[8:1],,7,,1,6,,8,2-6[8:1],,1,,2,8,,
7xh[8:1]/5,4,3,,6xh[8:1]/4,3,2,,5xh[8:1]/3,2,1,,4xh[8:1]/8,1,2,,
7,5-1[8:1],,8,,5,7,,2,8-4[8:1],,3,,8,2,,
5/1xh[8:1],6,7,,6/2xh[8:1],7,8,,7/3xh[8:1],8,1,,8xh[8:1]/4,3,2,,
7,1-5[8:1],,8,,1,7,,3,5-1[8:1],,2,,5,3,,
8xh[8:1]/4,3,2,,7/3hx[8:1],8,1,,6xh[8:1]/2,1,8,,
{32}5/1,6,7,8,1,2,3,4,{8}5w1[8:1],,5b`Cf,,
6/1-6[8:1],2,5/1,,
{16}4x-7[8:1]/8,1,2,,4x/1,2,3,,6x-1[8:1]/2,3,4,,6x/3,4,5,,
8<5[8:1],2,,2,8,,1,,4-7[8:1],8,,8,4,,1,,
8/3x-8[8:1],7,6,,7/3x,6,5,,6/1x-6[8:1],5,4,,1x/3,4,5,,
8-4[8:1],7,1,7,8,,6,,5-1[8:1],3,6,4,5,,2,,
8/3x-8[8:1],7,6,,7/3x,6,5,,6x-1[8:1]/1,2,3,,6x/2,3,4,,
8,8,3,3,6,6,1,1,
{32}5,4,3,2,1,8,7,6,5,4,3,2,1,8,7,6,
{16}5xb/B1/E2f/B2,,,E8f/B8/B7/3b,,,6b/B3/B4/E4f,,,E6f/B6/B5/1b,,,8x/4x,7,6,5,
4xb-7[16:1]b,,,2x-5[16:1],,,8xb-3[16:1]b,,,6x-1[16:1],,,4,,4,,
5xb-8[16:1]b,,,3x-6[16:1],,,1xb-4[16:1]b,,,7x-2[16:1],,,5,,5,,
{16}6b,5,7,3b,4,2,7b,5,7,2b,4,2,7b,6,1xb/5xb,8/4,7bq5[8:7]b/3bq1[8:7]b,
