&title=ヒャダインのカカカタ☆カタオモイ-C
&artist=ヒャダイン
&first=0.01
&des=Holinality
&lv_5=12+
&inote_5=(180)
{4}
,,,,,
{32}
,,,,,,,,,,,,,,,,
,,,,,,,,E6/B5/B6,,,,E4/B4/B3,,,,
Cf/B8/B1,,,,,,,,,,,,,,,,
{16}
,,3h[8:1],,6h[8:1],,4h[4:1],,,,5-7[8:1],,,,4-2[8:1]/5,,
,,4,,7,,7h[1:1],,,,3,,3,,4,,
4,,3,,2,,1-4[8:1],,,,7-4[8:1]/1,,,,1-4[8:1]/7,,
,,1,,7,,7p5[4:1],,,,,,,,,,
4,,5,,3,,6-3[8:1],,,,2-7[8:1]/6,,,,6-3[8:1]/2,,
,,6/2p1[2:1],,,,2,,,,,,,,,,
6,,3,,5,,4p3>7[4:3],,,,4,,,,6,,
,,6bx,,6bx,,6bx,,
{16}
,,,,5h[8:9],,,,
1,,2,,3,,4-2[8:1],,
,,4,,,,3-1[8:1],,
,,3,,5,,5h[2:4],,
,,,,C,,,,
B3,,B6,,,,E2,,
,,B7,,,,A1,,
,,1x,,,,Cf,,
,,,,2,,4/6h[2:1],,
,,4,,3,,2,,
,,1,,,,B1/E1/E2,,
,,7,,E8/B7/E7,,3,,
,,E4/B3/E3,,7,,6,,
5,,6,,5,,4h[4:1],,
,,2,,3,,4h[2:1],,
,,5,,6,,7,,
7>2[4:1],,,,7/2v4[4:1],,,,
4b,,3x,,3x,,3hx[4:1],,
,,4x,,5x,,6hx[8:1],,
,,7,,7>1[4:1],,,,
7/1-5[4:1],,,,5-3[4:1],,,,
2,,2x,,2x,,2hx[4:1],,
,,4x,,5x,,6hx[8:1],,
,,7,,7,,,,
7/3-8[8:1],,,,3/7-4[8:1],,,,
7,,1x,,1x,,1hx[4:1],,
,,7,,6,,5,,
,,1,,2,,3,,
4/5,,6,,,,7/5,,
,,4/2,,,,Cf,,
,,,E8,B7,,,,B2/B3
,,,B6,E6,,,,
,,,,2,,,3,
3,,,,4,,,,
5pp5qq5[1:1],,,,2,,2,,
,,1,,,,2,,
,,1h[4:7],,,,,,
{32}
,,,,,,,,
,,,,,,,,
A3,,,,,A4,,,
,,,,A5,,,,
,,,,A6,,,,
,,,,,A7,,,
{16}
,,,,6h[8:1],,,,
6/3h[8:1],,,,6-4[4:1],,,,6
,,,,2,,3,,
,,4,,,,4,,
,,5,,
{32}
B4,,,,B6,,,,B3
,,,,B5,,,,B2,,,,B7,,,,
{16}
Cf,,,,,,,,
,,,,5,,,,
5h[2:1],,,,B1,,,,
B2,,,,4,,,,
4h[2:1],,,,B8,,,,
B7,,,,6-8[8:1]/4,,,,
6/4,,,,5-7[8:1]/3,,,,
5/3,,,,6-8[8:1]/2,,,,
6/2,,,,B2/B3,,,,
B2/B3,,,,,,,,
3/6-8[8:1],,,,6,,,,
6/3-1[8:1],,,,3,,,,
3/6-8[8:1],,,,6,,,,
6/3,,,,3,,,,
8hb[4:1]/3hb[4:1],,,,,,,,
1hb[4:1]/6hb[4:1],,,,,,,,
7/4,,,,5/2,,,,
4h[8:3]/8b,,8b,,8b,,8b,,
{16}
,,1-6[8:1]/5-2[8:1],,1/5,,1/5,,
,,2-5[8:1]/6-1[8:1],,2/6,,2/6,,
,,1<6[8:1]/5>2[8:1],,1/5,,1/5,,
,,4,,4,,4bqq4pp4b[4:4],,
,,4,,7,,7,,
,,7,,7,,8,,
,,8,,8,,8h[2:1],,
,,4b,,4b,,4b,,
{16}
,,5-2[8:1]/1-6[8:1],,5/1,,5/1,,
,,6-1[8:1]/2-5[8:1],,6/2,,6/2,,
,,5>2[8:1]/1<6[8:1],,5/1,,5/1,,
,,5-8[8:1],,1,,5,,
,,1-4[8:1],,8,,1,,
,,8<5[8:1],,4,,8,,
,,4>1[4:1],,5,,4,,
,,7b,,6b,,5b/1b,,
,,1-4[8:1]/5-8[8:1],,1/5,,1/5,,
,,8-5[8:1]/4-1[8:1],,8/4,,8/4,,
,,1>4[8:1]/5<8[8:1],,1/5,,1/5,,
,,8,,7,,6,,
,,1-5[8:1],,2,,3/1,,
,,8-4[8:1],,7,,8/6,,
,,1,,2,,1/3,,
,,E3,,E4,,E5,,
E7,,E6,,E5,,E3,,
E7,,E2,,E8,,Cf,,
,,1,,8,,1,,
,,8b-4b[8:1],,8bx,,8bx,,
,,1b-5b[8:1],,1bx,,1bx,,
,,8b-6>1b[2:1]/1b-3<8b[2:1],,2b/7b,,1b/8b,,
,,,,,,,,
,,,,1h[8:1],,7h[8:1],,
3h[4:1],,,,,,,,5h[8:1],,3h[8:1],,6h[8:1],,4h[4:1],,,,5-7[8:1],,,,4-2[8:1]/5,,
,,4,,7,,7h[1:1],,,,3,,3,,4,,
4,,3,,2,,1-4[8:1],,,,7-4[8:1]/1,,,,1-4[8:1]/7,,
,,1,,7,,7p5[4:1],,,,,,,,,,
4,,5,,3,,6-3[8:1],,,,2-7[8:1]/6,,,,6-3[8:1]/2,,
,,6/2p1[2:1],,,,2,,,,,,,,,,
6,,3,,5,,4p3>7b[4:3],,,,4b,,,,6,,
,,6bx,,6bx,,6bx,,
,,E5/B5/B4,B6/B3/E7/E3,B7/B2/Cf/B8/B1,,,,,,,,,,,,
