&title=Loucetios (feat. Oliver&鏡音レン)
&artist=momocashew
&first=0
&des=senorita
&clock_count=4
&wholebpm=146
&lv_5=13+
&inote_5=(146)
{1},
{8}2^5[8:1],,2,7h[4:1],,6,7,2h[8:1],
{24}8pp8[4:1],7,6,{8}5,8,5,5h[4:1],,2q6[8:1],6,
{8}2,,8,8-3[8:1],,8,4pp3[16:5],4,
{8}5-1[8:1],,,,{24}2-6[8:1],1-5[12:1],2,{8}1,,,
{8}7^4[8:1],,7,3h[4:1],,2,3,5h[8:1],
{8}4v3[8:1],5,6,7,8^5[8:1],,8,2,
{32}2,3,4h[16:5],,{8},,,5/6h[8:1],,2/4h[8:1],,
{8}1h[2:1]/5,,{32}7,6,5,,,,,,6,5,4,,{8},,,
{8}1bq5[8:1]/5bq1[8:1],,5^2[8:1],,,8,8-4[8:1],3-1[8:1],
{8}8,3,6,{16}2,2q4[16:5],5,,,5,,,7,,
{8}1-6[8:1],,1-3[8:1]/5-1[8:1],,,,{16}8^5[8:1],,3^8[8:1],,
{8}8-4[8:1],3,6,7,{16}8-4[8:1],,,2,,,1,,
{8}8pp1[6:1]/5^8[8:1],,8p4[8:1],,,1,1-5[8:1],6-8[8:1],
{8}1,6,4,{16}7,7qq4[16:6],5,,,3,,,1,,
{8}1V35[32:5],,6-1[8:1],7,,3,4-1[8:1],1,
{8}8^3[8:1],7^4[8:1],8,7,{16}2v5[8:1],,,6,,,7,,
{8}8p4[8:1]/4p8[8:1],,4^7[8:1],,,8,8-4[8:1],5-7[8:1],
{8}8,5,2,{16}6,6pp1[16:5],1,,,3,,,5,,
{8}5-2[8:1],,1-5[8:1]/5-8[8:1],,,,{16}4^1[8:1],,7^4[8:1],,
{8}4-8[8:1],7,2,3,{16}4-8[8:1],,,7,,,6,,
{8}1pp3[8:1]/5-1[8:1],,1qq7[8:1],,,4,4-8[8:1],7-5[8:1],
{8}4,7,2,{16}6,6pp5[16:5],4,,,4,,,2,,
{8}2-6[8:1],,7-3[8:1],8,,1,2-5[8:1],5,
{8}6pp5[16:5],7,4^1[8:1],3,{16},,,,,,,,
{8}6h[2:1],,2-4[12:1],,,,,,
{8}4h[2:1],,3>5[4:1],,{16},,,4,,,,,
{8}5h[2:1],,6q4[5:1],,,,,,
{8}3h[2:1],,2p5[6:1],,{16},,,3,,,2,,
{8}1/4h[2:1],,8q5[6:1],,,,,,
{8}5h[2:1],,6<4[4:1],,{16},,,5,,,,,
{8}4h[2:1],,3p5[5:1],,,,,,
{8}6h[2:1],,3s7[4:1],,,,,,
{16}1,6,5,7,4V28[6:1],,56,,,,,7,,,6,,
{16}5,3,4,1,5,3,6,4,7,8,6,4,5pp6[5:1],,34,,
{16},,,,1q5[8:1],,78,,6,,,7,,,8z4[4:1],,
{16}5h[4:1],,,,,,,,3h[16:3],,,6h[16:3],,,4h[8:1],,
{16}5,,,3h[16:3],6,,7,,8,3,4,2,5h[4:1],,,,
{16}1,,2,4,3,,6,,1,8,2,7,1,,5h[8:1],,
{16}1,4,3,3,8pp3[16:5],5,6,6,8,,,,,,,,
{16}6,5,7,7,1,4,3,3,8,1,8-4[8:1],,,,,,
{8}3h[2:1],,,,8,,,,
{16}5h[2:1],,,,,,2,,2,,,6,,,7,,
{8}4h[2:1],,,,8,,,,
{16}6h[2:1],,,,,,1,,1,,,2,,,3,,
{16}4-8[8:3],,5,,4h[4:1],,,,,,,,,,,,
{16}8<4[4:1]/5,,,,,,1,,1,,3,4,3,,2,,
{8}8/3q5[8:3],,,,8,,,{16}6,5,
{16}7<3[8:2],5,6,,,,2,,{16}2,,,5,,,5,,
{8}7bp3[16:2]/3bp7[8:1],,7^2[8:1]/3,,,5,6-2[8:1],3-5[8:1],
{8}6,3,1,{16}3,3qq6[16:5],1,,,7,,,5,,
{8}4-8[8:1],,4-2[10:1]/8-5[8:1],1,,,{16}1^4[8:1],,6-1[8:1],,
{8}1V38[6:1],6,3,4,{16}5-1[8:1],,,7,,,6,,
{8}8pp1[6:1]/5^8[8:1],,8p4[8:1]/5,,,1,8-4[8:1],5-7[8:1],
{8}8,5,3,{16}6,6qq3[16:6],4,,,2,,,8,,
{8}1V35[32:5],,6-1[8:1],7,,2,3-8[8:1],8,
{8}7^2[8:1],6^3[8:1],7,6,{16}1-5[8:1],,,6,,,8,,
{8}1p5[8:1]/5p1[8:1],,1/5^8[8:1],,,1,2-6[8:1],5-3[8:1],
{8}2,5,8,{16}4,4pp7[16:5],8,,,1,,,3,,
{8}3-8[8:1],,8-4[8:1]/3-6[8:1],7,,,{16}7^4[8:1],,3-7[8:1],,
{8}7^2[8:1],3,5,6,{16}6-2[8:1],,,3,,,4,,
{8}1qq7[8:1]/5-1[8:1],,5/1pp3[8:1],,,5,6-2[8:1],1-7[8:1],
{8}6,1,4,{16}8,8q3[16:5],5,,,4,,,6,,
{8}6v5[8:1],,3-8[8:1],2,,5,6-1[8:1],1,
{8}2^7[8:1],3^6[8:1],2-6[8:1],3,{16}2,,,,,,,,
{8}7^4[8:1],,7,3h[4:1],,2,3,5h[8:1],
{8}2^5[8:1],1,6^3[8:1]*p2[8:1],7,,,8v3[8:1],3,
{8}8,,2-6[8:1],1,,1,8-4[8:1],7,
{8}2^7[8:1],3,5q3[24:5],6q2[8:1],,,,,
{8}2^5[8:1],,2,6h[4:1],,7,6,4h[8:1],
{8}7^4[8:1],8,3^6[8:1]*q7[8:1],2,,,1q6[8:1],6,
{8}1,,7-3[8:1],8,,8,1-5[8:1],2,
{8}7^2[8:1],6,4p8[24:4]*q8[24:4],3,,,,,
{8}7^4[8:1],,7,3h[4:1],,2,3,5h[8:1],
{8}3^6[8:1],2,7<3[8:1]*p3[8:1],8,,,8p4[8:1]*v5[8:1],1,
{8}8,,1q6[8:1],2,,8,7^2[8:1],6,
{8}3-8[8:1],4,7p1[24:5],6p2[8:1],,,,,
{8}2^5[8:1],,2,6h[4:1],,7,6,4h[8:1],
{8}6^3[8:1],7,2>6[8:1]*q6[8:1],1,,,1v4[8:1]*q5[8:1],8,
{8}1,,7-3[8:1],6,,1,2^7[8:1],3,
{8}6v3[8:1],5,8-4[8:1],1,8qq7[4:1]*pp1[4:1],,,,
{1},
E
