&title=Marshmallow
&artist= DECO*27 & Hayato Yamamoto
&first=0.33
&lv_5=14
&des_5=十月,蛋挞,hang
&inote_5=
(200){8}6h[1:1]/B8,B1,,B2,{4}B3,{8}4,5,
,{16}5x,6x,5x,6x,5x,6x,5xh[4:1],6x,{8},{4}6bx,
{16}3,4,{8}3,,{16}6,5,{4}6,{16}3,4,{8}3,
,5,7,6-2[8:1],,6x,{4}1x<6[8:1],
{24}2/1/D1,3/A8,4/D8,A7/5-1[8:1],{12},{8}7,5/6-8[8:1],8-4[8:1],6,,1-3[8:1],
1-7[8:1],1w5[4:1]*s5s1[2:1],{4},,,{8}8h[2:1],
1,2,3,4h[4:1],5,6h[4:1],5,
3h[4:1],4,6,{16}5<8[8:1],4,{8}5,{24}4x/5,3x,2x,{8}1,8x>3[8:1],
,{24}7/8/D1,6/A1,5/D2,{8}A2/4-8[8:1],2,4/3-1[8:1],1-5[8:1],{4}3,
{8}8-6[8:1],8-2[8:1],{4}8w4[4:1]*z4z8[2:1],,,,{8}1bx/8,
1bx/7,1bx/6,1bx/5,4-8[8:1]/1-6[8:1],7,
{4}4/1,{8}7x-5[8:1],1x,{4}8bxw4[4:1],8b,
,{8}6,1-3[8:1],{4}6,{8}6,4-2[8:1],
6,4,6,1pp4[8:3],{2}6,
{4},{8}5h[4:1],4,{4}3h[4:1],{8}4,5,
,6h[8:3],,5,4v1[4:1],3,{2},{8}3,
8-6[8:1],{4}3,{8}3,5-7[8:1],
3,5,3,8qq5[8:3],{2}3,
{4},{8}4h[4:1],5,{4}5h[4:1],{8}4,5,
,4h[8:3],5,5h[4:1],,{16}3,2,{4}1-7[8:1]*-6[8:1],
1-5[8:1],1-3b[8:1]*-4b[8:1],,{8}5,6-8[8:1],
7,6-2[8:1],{4},{8},{16}1,2,{4}3h[8:9],
1,{8}8,8,,7b,,8<4[4:1],
,4>8[4:1],{2},{4}1-3[8:1]*-4[8:1],
1-5[8:1],1-7b[8:1]*-6b[8:1],,{8}5,4-2[8:1],
3,4-8[8:1],{4},{8},{16}1,8,{4}7h[8:9],
1,{8}2,2,,3b,,2>6[4:1],
,6<2[4:1],,2w6[4:1],{2},{4}8b/1b,
5/3,{16}8/2,{8},{16}1/7,{8},8h[8:1]/2h[8:1],
,8/1,{4}2>4[8:1],{16}8/2,7,{8}6,5,5/4,
6/3,7/2,8/1-5[8:1],7-3[8:1],1,7,2-6[8:1],8-4[8:1],
2,8,1-5[8:1],5-2[8:1],{2}1,
{8},6,5,6,3,4,3,7,
8,7,8qq5[4:1],2,1/8,{16}2x,3x,{8}4x,6/3,
{16}4,5,4,5,4,5,{8}4,{16}6/3,{8},{16}7/1,{8},8/2,
,{24}8x,7x,6x,,4x,3x,2x,{12},{24}7x,6x,{12}5x,{24}3x,2x,{8}1x,{24}6x,5x,4bx,
{1}E2f/3x>2v1<3[2:7],
,,{4},,,6x<3>6[2:7],
{2}4,4,
4,4,
{4}5,5,5,5,
5,5,5,Cf,
1V35[4:1]/5V71[4:1],{2},{4}8v6[4:1]/4v2[4:1],
,{8},5,4,5,4,6,
6,3,3,5,5,4,4,6,
,5,{4}4h[2:1],,Cf,
3-1<8[4:1]/7-5>4[4:1],{2},{4}1>4[4:1]/5<8[4:1],
,{8},Cfh[8:11],{1},{4},{8},E1,
,E7,{4}E3,{2},{4}7-3[8:1]/8-4[8:1],
8/7,{8}5/2,1/6,{4}7/8x<5[8:1],
8x>3[8:1],8x-4[8:1],{8}8x,3,2,1,
7-3[8:1],8,7/2-5[8:1],1,{4}2/8-4[8:1],{8}8/2-6[8:1],6>1[2:1],
{4}7-3[8:1],A7f,,8,
8-4[8:1]/1-5[8:1],1/8b,{8}6/3,2/7,{4}8/1x<6[8:1],
1x>4[8:1],1x-5[8:1],{8}1x,4,3,2,
8-4[8:1],1,8/3-6[8:1],2,{4}3/1-5[8:1],{8}1/3-7[8:1],7<2[2:1],
{4}8-4[8:1],A8f,,{16}8x,1x,8x,1x,
{4}8x,{8}3/6h[1:1],3,{4}2,1-7[8:1],
1-3[8:1],1<5<1[2:1],{2}4h[2:1],
{4},{8}2,1,2,7,,8,
8,2-4[8:1],3,2,1s5[4:1],2,{4}1,
,{8}6/3h[1:1],6,{4}7,8-2[8:1],
8-6[8:1],8>4>8[2:1],{2}5h[2:1],
{4},{8}7,8,7,2,,1,
1,7-5[8:1],6,7,8-4[8:1],7,{4}8,
{8}7b/1b,{16}5,4,{8}5,8b/2b,{16}4,5,{8}4,{4}8b/1b,
{8}2-8[8:1],2-4[8:1],{4},{8},{16}8b,7b,{8}6b,1h[4:1],
{4},{8}2,2,,3V57[4:1],,7V13[4:1],
,3z7[8:3],{4},,,{8}2b/8b,
{16}4,5,{8}4,1b/7b,{16}5,4,{8}5,{4}1b/8b,
{8}7-1[8:1],7-5[8:1],{4},{8},{16}1b,2b,{8}3b,8h[4:1],
{4},{8}7,7,,6V42[4:1],,2V86[4:1],
,6pp2[8:3],{4},,,Cfh[1:4],
E1,,E2,
,E3,,E4,
,E5,,E6,
,E7,,E8,
,E1,,E2,
,E3,,E4,
,E5,,E6,
,E7,,E8,
{32}1,2,3,4,5,6,7,8,1,2,3,4,5,6,7,8,1,2,3,4,5,6,7,8,1,2,3,4,5,6,7,8,
1,2,3,4,5,6,7,8,1,2,3,4,5,6,7,8,1,2,3,4,5,6,7,8,1,2,3,4,5,6,7,8,
1,2,3,4,5,6,7,8,1,2,3,4,5,6,7,8,1,2,3,4,5,6,7,8,1,2,3,4,5,6,7,8,
1,2,3,4,5,6,7,8,1,2,3,4,5,6,7,8,1,2,3,4,5,6,7,8,1,2,3,4,5,6,7,8,
1,2,3,4,5,6,7,8,1,2,3,4,5,6,7,8,1,2,3,4,5,6,7,8,1,2,3,4,5,6,7,8,
1,2,3,4,5,6,7,8,1,2,3,4,5,6,7,8,1,2,3,4,5,6,7,8,1,2,3,4,5,6,7,8,
1,2,3,4,5,6,7,8,1,2,3,4,5,6,7,8,1,2,3,4,5,6,7,8,1,2,3,4,5,6,7,8,
1,2,3,4,5,6,7,8,1,2,3,4,5,6,7,8,1,2,3,4,5,6,7,8,1,2,3,4,5,6,7,8,
{1}1>7[4:5],
{4},,{8},8,1,8,
{4}1h[4:1],{8}7,2,2,6,6,3,
{6}5,{12}4,4h[4:1],{4},{12},,{4}3/6,
{1}8<2>8[4:5],
{4},,{8},1,8,1,
{4}8h[4:1],{8}2,7,7,3,3,6,
4,5,{4}5h[4:1],,1>6[2:1],
{2}8h[8:3],{4}7<3b[2:1],8h[8:3],
,{8},4,5,4,5,3,
3,6,6,4,4,5,5,3,
,4,{4}5h[2:1],,8<3[2:1],
{2}1h[8:3],{4}2>6b[2:1],1h[8:3],
,{8},5,4,5,4,6,
6,3,3,5,5,4,4,6,
,5,{4}A4,{2},{4}5/4,
2/7,{8}1-5[8:1],8,{4}1-6[8:1],
3/1-4[8:1],1/7,{8},8,1,8,
7/1,2,4/3,5,6/1,2,8/3,7,
3-8[8:1]/6v1[8:1],2,{16},B1f,{4},{8},{4}8h[8:1]/1h[8:1],
7v4[8:1]/1v4[8:1],{16}7/1,Cf,{8},3,5-1[8:1],3,5>2[8:1],
,6/5<8[8:1],,4/5,,3,7,4,
{12}8b,7,6,5,4,1b,8,7,6,5,2b,1,
8,7,6,5h[4:1]/Cfh[4:1],{4},{12},,{4}E7/B6/B2/E3,
4h[2:1]/5h[8:3],{2},{4}3h[8:3]/6h[2:1],
,{8},2b,4b,3b,6b,5b,
7b,1b,3b,2b,7b,6b,{4}8bh[8:3],
{8},1b,7b,Cfh[8:3],{2},{4}6h[2:1]/4>7b[16:3],
{2},{4}3h[2:1]/5<2b[16:3],
,{8},3,4/6,4/6,5/3,5/3,
6/4,2b,5/3,7b,5-1[8:1]/4-8[8:1],6/3,{4}E5,
,{32}1b/8b,2b/7b,3b/6b,4b/5b,{4},{8},{24}2/6b,3x,4x,5x,6x,7x,
8x,1x,2x,3x,4x,5x,{4}6b/Cf,4h[8:1]/5h[8:1],{8}4,6,
4,3,5,4,6,6,4,3h[16:1],
5,4,6,4,3h[16:1],4,5,5,
4,6h[16:1],4,5<8[8:1],3,{24}3,A6,A7,{4},1,
{8}2,8,1h[16:1],7,2,2,
1,8,7h[16:1],1,1,2h[16:1],7,7,
1,8,2,7,8h[16:1],1>4[8:1],{12}7,,{24}A2,A3,
{8},8b,8b,8b,8b,8bw4b[8:1],8b,{16}8b,B8/C/B4,
{8},5x/3xh[2:1],,E6,{4}B6,4x/6h[2:1],
{8}E4,B3,,3,3/4xh,3,3/2xh,3,
3/8xh,3,3/6xh,6,6/E8,6,6/E2,6,
6/E4,6,{4}6h[4:1]/E6,,C,
{8}7/5h[2:1],{4},{8}B4,{4}B6,2/4h[2:1],
{8},B5,{4}B3,{12}2,6,3,7,4,8,
3,7,2,6,1,5,2,6,3,7,3,7,
3,6,4,5,{6}4,6/3-5[8:1],{12},{4}3b,
