&title=ニュートンダンス
&artist=ナユタン星人 × Chinozo feat.初音ミク & FloweR
&first=0.754
&des=Kurage
&lv_5=12+
&inote_5=(176)
{4},,,,
2h[4:4]/6,,E1,,6h[4:4],,C,,4h[4:4],,E5,,5p4[16:7],,{8},1x,1x,,
{4}24,56,34,57,3-5[8:1]/6-4[8:1],36,2-5[8:1]/7-4[8:1],27,
4x/5x,{16}3,6,3,6,2,7,2,7,1,8V63[16:5],1,8,
{4}1xbh[4:3],,,C,
{4}
8x/B6/E6,1x/B4/E4,7x/A5/E6,3x/A4/E5,
8x/B6/E6,1x/B4/E4,7x/A5/E6,3x/A4/E5,
8x/B5/E6,1x/B3/E4,6x/A5/E5,2x/A4/E4,
8x/B5/E6,1x/B3/E4,{8}2x-6[8:1],E1/B8,E1/B8,,
{4}
8p3[8:1],2>5[8:1],7p3[8:1],1>4[8:1],
8p3[8:1],2>5[8:1],7p3[8:1],1>4[8:1],
8<5[8:1],1q6[8:1],7<4[8:1],2q6[8:1],
8<5[8:1],1>4[8:1],{8}8xw4[8:1],8x,{48}B8,Cf,B4,,,,{8},
{8}
2xh[8:2]/6x,,4,4-6[8:1],,3,3,,
7h[8:2]/3,,5,5qq3[16:3],,7,7,,
E7,E6,E3,E4,E1,C,E5,,
6>4q8[48:15]/4,,3,3xh[4:1],,,{16}6,5,6,5,
{8}
7h[8:2],,5,5-3[8:1],,6,6,,
2h[8:2]/6,,4,4pp6[16:3],,2,2,,
E3,E4,E7,E6,E1,C,E5,,
7-3[8:1]/3,,1-5b[8:1],,C,,7x/3x,,
2-4[8:1]/6,,5,5-1[8:1],,6,6,,
2/8-6[8:1],,5,5v3[16:3],,7,7,,
6,5,47,7,3,4,25,2,
6s2[4:1],,1,1xh[4:1],,8,72,,
5<8b[8:1]/4,,1,1>4b[8:1],,6,6,,
8-6[8:1]/7,,1,1-5[8:1],,2,2,,
34,3,65,6,24,2,57,7,
8b-5[8:1]/1b-4[8:1],,,,{16}6x,3x,6x,3x,E5,,E3/E7,,
{8}1xh[8:29]/8x,,4-6[8:1],4,,,B3/E4,,,4,4-6[8:1],4,,,B3/E4,,
{8}E5,,4-6[8:1],4,,,B3/E4,,,E5,C,E1,,{16}8x,1x,8x,1x,8x,1x,
{8}7-3[8:1],,B1/E1,,4-6[8:1]/2,,B3/E3,,
7-3[8:1]/8,,B1/E1,,4w8[8:1],4,,,
6x/2x,,78,6,45,3,12,,
{4}4x-2[8:1]/8b-6[8:1],4x/8b-4[8:1],8b/4x,3-5[8:1]/5<8[8:1],
{8}5pp4[8:3]/3,,1xh[4:1],,,1-5[8:1],2,3,
4V62[8:2],,7,8xh[8:2],,1-5[8:1],2,3,
4V62[8:2],,7,8xh[8:2],,1<6[8:1],2,3,
4-1[8:1],,5,5,26,4x,3x-6[8:1]/5x<8[8:1],,
5pp4[8:3]/3,,1xh[4:1],,,1-5[8:1],2,3,
4V62[8:2],,7,8xh[8:2],,1<6[8:1],2,3,
4-2[8:1],5x,6-8[8:1],5x,4-2[8:1],5x,6-2[8:1],6x,
1b<6[8:1]*>4[8:1],,1bw5[8:1],,1b,,6x-4[8:1]/4x>1[8:1],,
4qq5[8:3]/6,,8xh[4:1],,,8-4[8:1],7,6,
5V37[8:2],,2,1xh[8:2],,8-4[8:1],7,6,
5V37[8:2],,2,1xh[8:2],,8>3[8:1],7,6,
5-8[8:1],,4,4,73,5x,6x-3[8:1]/4x>1[8:1],,
4qq5[8:3]/6,,8xh[4:1],,,8-4[8:1],7,6,
5V37[8:2],,2,1xh[8:2],,8-4[8:1],7,6,
6x-1b[8:1]/A4f,,2x-5b[8:1]/A6f,,8xw4b[8:1]/A2f,,8x`Cf,,
{4}2xb/6xb,,4-1[8:1]/5-8[8:1],,
{4}2x-7[8:1],3x-6[8:1],2x-7[8:1],3x-6[8:1],
{8}1xh[4:1],,8,1,28,3,45,6,
{4}2x-7[8:1],3x-6[8:1],2x-7[8:1],3x-6[8:1],
{8}1xh[8:2],,8<6[8:1],8,2>4[8:1],2,5,5,
{4}3b-7[8:1],4-6[8:1],2-6[8:1],1-7[8:1],
{8}4h[4:1],,5,4,35,6,78,1,
{4}2-6[8:1],1-7[8:1],3-7[8:1],5,
{16}1b/8x,,6,5,7b,,2,1,3b,,5,4,
(190)
{16}5bs1[8:1],,,,
(176)
{4}4x>5[32:11]/5x,7h[32:12],,{8}3,24,
{8}6,57,8,{16}2,1,{8}2,3-8[8:1]/4-7[8:1],,34,
,{16}2x,3x,4x/5x,6,7,8,2x,3,4,5,1x,8,7,6,
{8}3-8[8:1],4-7[8:1],3,4,,E1/B1/E2,E1/B1/E2,,
4/6V47[4:1],,2,2-6[8:1],,8-3[8:1],,4-7[8:1],
,6-2[8:1],,8,8-3[8:1]*-5[8:1],,8,,
62,{16}7x,8x,7x,6,5,4,2x,1x,2x,1x,2x,3,4,5,
8x,7x,6x,5x,8x/4x,7x,6x,5x,8x/4x,7x,6x,5x,8x-5b[8:1]/4x,,,,
{4}8xb/4xb-1[4:11],,,,E6,,,,E8,,,,8h[4:2],,{8},{16}E1,C,{8}E5,,
{4}6xb/4xb,65,{16}46,,,5,{8}6,64,
{4}64,65,{16}46,,,5,{8}6,64,
{4}3b/7-5b[8:1],1-3b[8:1],7-3b[8:1],C,
{8}2b/4b,24,56,56,{16}3,4,3,,{8}2>5[8:1]/5<8[8:1],,
2b/5bpp4[8:3],,1xh[4:1],,,1-5[8:1],2,3,
4V62[4:1],,7,8xh[4:1],,3-7[8:1],4,5,
6V84[4:1],,1,2xh[4:1],,5-1[8:1],6,7,
8<5[8:1],,2,2,34,6x,2x-6[8:1]/5x<8[8:1],,
2b/5bpp4[8:3],,1xh[4:1],,,1-5[8:1],2,3,
4V62[4:1],,7,8xh[4:1],,1<6[8:1],2,3,
4-1[8:1],5x,6-1[8:1],5x,4-1[8:1],5x,6-1[8:1],5x,
4,4,{16}37,,6,5,6,,5x/7x,,{8}4x>1[8:1]/8x<5[8:1],,
4qq5b[8:3],,8xbh[4:1]/A4f,,,8-4[8:1],7,6,
5V37[4:1],,2,1xh[4:1],,6-2[8:1],5,4,
3V15[4:1],,8,7xh[4:1],,4-8[8:1],3,2,
1>4[8:1],,7,7,65,3x,7x-3[8:1]/4x>1[8:1],,
7b/4bqq5[8:3],,8xh[4:1],,,8x<5b[8:1],1x>4b[8:1],8x,
1xb-5-1b[8:2],,7x,7xbh[4:1],,8-4[8:1],1,2,
A4f/2bx-7b[8:1],,6xb-3b[8:1]/A2f,,A6f/1xbw5b[8:1],,1b`Cf,,
3xb/7xb,,,,4-1[8:1]/5-8[8:1],,,,
{4}2x-7[8:1],3x-6[8:1],{8}2x-7[8:1],2x,3x-6[8:1],3x,
{8}1xh[4:1],,8,1,28,3,45,6,
{4}2x-7[8:1],3x-6[8:1],{8}2x-7[8:1],2x,3x-6[8:1],3x,
{8}1xh[8:2],,8<6[8:1],8,2>4[8:1],2,5,5,
{4}3b-6[8:1],4-8[8:1],{8}2-5[8:1],2,1-6[8:1],1,
{8}4h[4:1],,5,4,35,6,78,1,
{4}2-5[8:1],1-6[8:1],{8}3-7[8:1],3,5,,
{4}1b-5[8:1]/8b-4[8:1],1b<6[8:1]/8b>3[8:1],1b-4[8:1]/8b-5[8:1],1b/8b,
{8}36,36,36,,45,45,45,,26,37,26,37,2xb/6xb,,,{24}E6,E5,E4,
{4}3x<6[4:19],,,
