&title=動く、動く
&artist=水瀬いのり/久保ユリカ
&first=-0.31
&des=Æqual
&lv_5=12+
&inote_5=(128){4},,,,4/6,
{16}5,4,,4,,,,5/3-5[0.3516##0.2344],,,{8}3,
{16},,,,7,6,{8}5,,,,,{4}5/3,
{16}4,5,,5,,,,4/6-4[0.3516##0.2344],,,{8}6,
{16},,,,2,3,{8}4,{16}E1,E8,E7,E6,{4}E5,
4x/2x,{16}3,5,,5,,,,6/4,,,{8}5/7p5[4:1],
{16},,,,2,3,{8}4,,,,,{4}7/5,
{16}6,4,,4,,,,3/5,,,{8}4/2q4[4:1],
{16},,,,7,6,{8}5,B5,B7,{16}E2,E3,{8}E4,
{4}5x/7x,{16}6,8,,8,,,,7/1,,,{8}8h[4:1]/2>5[4:1],
{16},,,,8,7,{8}6,E6,E8,E2,B3,
{4}4x/2x,{16}3,1,,1,,,,2/8,,,{8}1h[4:1]/7qq4[8:3],
,,,,E3,E1,{4}B6,
{8}6/5,{16}6,5,7,5,{8}5,7qq5[8:1],{16}2,2h[16:3],,,,,{8}3/4,
{16}3,4,2,4,{8}4,2pp4[8:1],{16}7,7h[16:3],,,,,{8}6/5,
{16}5,6,4,5,{8}3,5/4,{16}5,4-2[0.5813##0.2344],,,,,{4}4/5-7[8:1],
5/4-1[8:1],4/5-8[8:1],5/4,
{8}1/2,{16}3,3,5,4,{8}5,4v1[8:1],{16}6,6h[16:3],,,,,{8}8/7,
{16}6,6,4,5,{8}4,5v8[8:1],{16}3,3h[16:3],,,,,{8}1/2,
{16}3,3,6,4,{8}5,3v1[8:1],{16}6,6h[16:3],,,,,{2}3-7[8:1]/4v7[8:1],
6-2[8:1]/5v2[8:1],
{8}4>5[8:7],,,,,7,,5p4[8:3],
5,,,,,3,4,5,
4p3>5[4:5],4,,C,,5,{4}5,
Ch[2:1],,,2/8-2[8:1],
8/2-6[8:1],2/6-4[8:1],6/3,3/5-3[8:1],
5/3-7[8:1],3/7-1[8:1],7/1-5[8:1],5/1,
{8}4/3,2,5/6,7,5/3,1,4/6,8,
{16}3,6,2,7,{32}1bx,8x,7x,6x,5x,4x,3x,2x,{4}1x/Cf,1-7[8:1],
1/2-6[8:1],2/3-5[8:1],3/5,{8}8-2[8:1],7-5[8:1],
8-4[8:1],7-3[8:1],8,7,,8h[8:1]/7h[8:1],,6/1,
5/2-5[8:1],{16}3,4,,,{8}6,4/7-4[8:1],{16}6,5,,,{8}3,
2-5[8:1],7-4[8:1],2,7,,2,8-2[8:1],6,
{4}8/7-3[8:1],7/6-4[8:1],6/4,{8}1-7[8:1],2-4[8:1],
1-5[8:1],2-6[8:1],1,2,,7/5,6,4,
5/3,{16}4qq2[8:1],5,,,{8}4/6,5,{16}5pp7[8:1],4,,,{8}5/3,
{16}1b,,,2b/8b,,,{8}1b/7b,{4}5b/Cf,1-7[8:1],
1/2-6[8:1],2/3-5[8:1],3/5,{8}8-2[8:1],7-5[8:1],
8-4[8:1],7-3[8:1],8,7,,8h[8:1]/7h[8:1],,6/1,
5/2v5[8:1],{16}3,4,,,{8}6,4/7v4[8:1],{16}6,5,,,{8}3,
1>4[8:1],8<5[8:1],1,8,,2,1-7[8:1],3,
{4}1/2-6[8:1],2/3>5[4:1],3/5,{8}1-7[8:1],2-4[8:1],
1-5[8:1],2-6[8:1],1,2,,7/5,6/4-2[8:1],5/3,
{4}4/5-7[8:1],5/4-8[8:1],4/5-1[8:1],5/4,
{16}2b,,,8b/1b,,,{8}6b/3b,{2}4bpp6[4:1]/5bqq3[4:1],
{16},,,,5,4,,4,,,,5/3<5[0.3516##0.2344],,,{8}3,
{16},,,,7,6,{8}5,,,,,{4}5/3,
{16}4,5,,5,,,,4/6>4[0.3516##0.2344],,,{8}6,
E
