&title=レータイスパークEx
&artist=COOL&CREATE
&first=0
&des=NaOH
&clock_count=4
&lv_5=14
&inote_5=(210)
{4},,,,,,,,
{8}
6h[8:3],,4,3h[8:3],,8,7,6h[8:7],,8,8>5[8:3],,8,,,,
7h[8:3],,5,4h[8:3],,7,6,5h[8:3],,1,2,3,4v3[8:1]/6v7[8:1],,,,
2h[8:3],,8,7h[8:3],,1,2,3h[8:7],,5,5s1[8:3],,5,,,,
3h[8:3],,4,5h[8:3],,1,2,3h[8:3],,6,6h[8:2],,{16}E1,E2,E3,E4,A1,A8,A7,A6,
{8}4x,4x-8[8:1],5,4,,7-4[8:1],,2pp1b[8:3],,8,7,6,5<8[8:1],,45,,
3,3-8[8:1],4,3,,7-3[8:1],,1pp8b[8:3],,7,6,5,4<4[4:2],,C,,
4x<4b[4:2],,C,,4x<4[4:2],,C,,4x<4b[4:2],,C,,4x,,C,,
{16}2x/5x,,3,4,3,,2,,34,,34,,45,,6-1[8:1]/5,,,,3^6[8:1],,,,8w4b[8:1],,,,8b,Cf,,,,,
{8}
2x-5[8:1]/6x,7,8,,2x-5[8:1]/6x,7,8,,2x>5[8:1],6,2,7,8,17,26,,
7x-4[8:1]/3x,2,1,,7x-4[8:1]/3x,2,1,,7x<4[8:1],3,7,2,1,82,73,46,
5^7[12:1],,3h[4:1],,1-5[8:1],3,,4>2[12:1],,46,7,8h[4:1],3,4-1[8:1],,
45,,5-2[8:1],6,7,,6p2[8:1],7,8,,1,1h[4:1],,3^6[8:1],,3b/8b,,
3x-8[8:1]/7x,6,5,,3x-8[8:1]/7x,6,5,,3x^8[8:1],7,3,6,5,46,37,,
6x-1[8:1]/2x,3,4,,6x-1[8:1]/2x,3,4,,6x^1[8:1],2,6,3,4,53,62,17,
8<6[12:1],,2h[4:1],,4-8[8:1],2,,1>3[12:1],,17,6,5h[4:1],4,3-8[8:1],,
36,,6,5,4h[4:1],,7,6,5,,27,2h[4:1]/7,,{16}5x,6,7,8,5x,4,3,2,
{8}5b-7[12:1]/1b,,45,,4-8[8:1],,34,,2-7[8:1],,6-3[8:1],,1-4[8:1],,5-8[8:1],,
3h[4:1],,6,7-4[8:1],,2v5-3-8[8:3],,2,,7,6,5,8-3[8:1]/4-7[8:1],,4b/8b,,
2-4[12:1],,12,,1-5[8:1],,18,,7-4[8:1],,2-5[8:1],,8-3[8:1],,1-6[8:1],,
5h[4:1],,2,3-8[8:1],,7v4-6-1[8:3]/3,,7,,2,3,4,5-2[8:1]/1-6[8:1],,1b/5b,,
2h[8:1]/A6/B6/E7,,7xh[8:1]/A3/B3/E3,,8,7,6,5V74[4:1],,3,2,1h[4:1],,8,27,63,
45,5h[8:1],C,3x/4x,3h[8:1],C,7x/3x,7h[8:1],C,8,17,26,{16}3,4,2,,5,,45,,
3x/6x,,5,4,5,,3,4,3,,25,,1-4[8:1]/6,,7,,,,7,,6,,5,,1,2,3,4,1,8,7,6,
{8}3b-6[8:1]/5b,,37,8b^6-2b[4:1],,2<4[8:4],3,3bh[8:5],,,,,,,Cf,,
E2,E8,E4,E6,,E3,E7,Ch[8:3],,,,,{16}5x/1x,6,7,8,5x/1x,4,3,2,
{8}
5bxV71[6:1]/1bx,2,3h[4:1],,7x-5[12:1],3V51[4:1],7,3,,8,8h[4:1],,1,{16}7,6,5xh[8:1],,2,3,
{8}4xh[8:1]/5-1-3[4:1],6,7,,8,7,6-1[8:1],45,,2,3,45,4>7b[4:1],6,4,,
6-4[12:1],4-8[8:1],6,,2,2h[4:1],3x<8[4:1],3,,1,1h[4:1],,8,{16}2,3,4xh[8:1],,8,7,
{8}6x/5,7-3[8:1]/4,38,,{16}4h[16:3],,,1h[16:3],,,2,,38,,5,4,5,,3,4,3,,45,,2b/7b,,,,
{8}8x<4[6:1]/3x,2,1h[4:1],,5x-7[12:1],2V84[4:1],5,2,,7,7h[4:1],,4,{16}8,7,6xh[8:1],,1,2,
{8}3xh[8:1]/5-1-4[4:1],6,7,,8,7q5[4:1],6,3b/7b,,4,3,2,1-5[8:1],,1bv3b[8:1]*-4b[8:1],,
1bv7b[8:1]*-6b[8:1],,1b,,5x,46,37,2/8h[8:3],,1,2,3,4-1[8:1]/8-5[8:1],,48,,
2x/7x,27,{24}A3,E4,A6,E6,,,2x/7x,,,2x/7x,,,E3,B3,B6,E7,,,{4}1b>8[4:2]/5bxh[4:3],,,,
{8}E8,E7,E6,,E2,E3,E4,,E8,E2,E6,E4,C,{24}A3,E4,E6,A6,,,,,,
{8}A2,A3,A4,,A7,A6,A5,,A2,A7,A3,A6,C,{24}A7,E8,E2,A2,,,,,,
{8}34,,45,,6,6h[4:1],,1>4[4:1],,8,8,,7,7h[4:1],,
4-8[4:1],,7,6,5-1[4:1],,2,3,4h[4:1],,7,7h[4:1],,{16}1,2,3,4,8,7,6,5,
{8}1b-3[12:1]/4b,,7-5[8:1]/1,,1-4[8:1]*-6[8:1],,1,,
2-5[8:1],,6-1[8:1]/2,,2-5[8:1]*-7[8:1],,2,,
2>5-1[4:1],,25,6,,7qq8b[8:3],,27,,4,3,2,7-3[8:1]/1,,1bV35V31[8:4]*V75V71[8:4]/7b,,
1b,,,,,,7-4[8:1],,2-5[8:1]/7,,8-3[8:1]/2,,1-6[8:1]/8,,1/5h[4:1],,
4>1[8:1],,48,7<4[8:1],,1>4[8:1]/7,,18,,7-4[8:1],8pp8[4:1],7,8,,4bx,,
6xh[8:1]/A4/E4/E5,,2xh[8:1]/A5/E5/E6,,8,7,6,5<8[8:1],,1-5[8:1],2,3,,4,3,2,
18,18,C,36,36,B2/B7,45,36,27,18,27,36,{16}2,4,3,,7,5,6,,
4b/5b,,3,4,2,,1,,7,8,7,,6-1[8:1]/1,,52,,,,2,,3,,4,,7,6,5,4,3,2,1,8,
7bxh[4:1]/1bx,2,3,4,5,,3bxh[4:1]/8bx,7,6,5,4,,{8}5bx<4[4:3],1bh[8:7],,,,,,,,,
E1,E3,E5,E7,,E2,E6,Ch[8:3],,,,,{16}1x,2x,3x,4x,5x,6x,7x,8x,
{4}
1xh[4:3],E8/B7,,B6/E6,5xh[4:3],E2/B2,,B3/E4,
4xh[4:1],E8,6h[4:1],E1,2h[4:1],4h[4:1],3h[4:1],,
8xh[4:3],E2/B2,,B3/E4,4xh[4:3],E8/B7,,B6/E6,{8}
8,7,6h[4:1],,{16}5,,,45,,,3p8b[4:2]/4,,34,,,,,,,,,,,,7-5[12:1],,,,
7-1[12:1],,2-4[12:1],,7,,2,,5h[8:1],,3,2,1h[8:1],,7,6,
1-7[12:1]/5,,5,,1-3[12:1],,5,,1,,6,5,7,,3,4,
2-4[12:1],,7,,2-8[12:1],,7-5[12:1],,2,,7,,2,,
{24}1b/7b,6,5,4,,,{16}3,4,2,,34,,2,1,3,8,2-6[8:1],,,,
2b>5b[8:1]*<7b[8:1],,,,2b,,,,6,,6,5,8-2^3[8:1],,4,,
8-6^5[8:1],,4,,8,,4,,4x/8x,37,26,15,4b/8b,,,,
18,,18,,{24}2x,3,4,7x,6,5,1,,,1,,,6x,5,4,2x,3,4,{4}8b<1b[4:2],,,,
{4}
8-5[8:1]/4h[4:1],,6-1[8:1]/4h[4:1],,8-5[8:1]/4h[4:1],,6-1[8:1]/4h[4:1],,
2h[4:1],3h[4:1],4h[4:1],5h[4:1],6h[4:1],7h[4:1],8h[4:1],1h[4:1],
{12}2h[4:1],,,5,6,7,1,2,3,5,6,7,{8}18,27,3-7[8:1]/6,45,,E1f,,,
6x-1[8:1],,2,3V52[4:1],,7,7,8<5[8:1],,1,2,3,4,4b/5b,4b/5b,,
{8}4x,4x-8[8:1],5,4,,7-4[8:1],,2pp1b[8:3],,8,7,6,5<8[8:1],,45,,
3,3-8[8:1],4,3,,7-3[8:1],,1pp8b[8:3],,7,6,5,
{4}5x<7[4:1],7x>1b[4:1],1>4[4:1],4<7b[4:1],7>3[4:1],3<7b[4:1],
7>3[4:1],3<8b[4:1],8>6[4:1],3,
{8}1h[32:5],{32}8x,,2,3,4,5,6,7,8,1,2,3,
{8}4x/8x,15,26,37,,48,,4-1[8:1]/8-5[8:1],,4b/8b,,,,,,{16},
1bs5[4:2]/8bz4[4:2],,,,,,,,
