&title=[個] 個々々々々々人
&artist=Sohbana
&first=0.049
&lv_1=1
&des_1=
&inote_1=
(144){4},{1},,,,,,{4},,,{8},,
E
&lv_5=1
&des_5=
&inote_5=
(144){4},{16},,,,,,,,,,,,2h[16:13],
,,,,,,,,,,,,8,1b,6,
3,3,{8}5,7h[8:1],{16}5,6,4,4,{8}5,2,{16}4,3,
4,3,{8}5,6,6,7,{16}8,1b,{8}7,6/4,
{16}2h[16:3],,,4,{8}2,{16}1b,8,{8}2,{16}2,1b,{8}3,7,
{16}2,2,4,3,5,5,{8}4,{2}8-4[8:1],
{8}3h[16:1],3h[16:1],2h[16:1],2,1b,7>2[8:1],{4}2v4[400:49],
{8}3h[16:1],3h[16:1],2,2,1b,7>2[8:1],{4}2v4[8:1],
{8}3h[16:1],3h[16:1],2h[16:1],2,1b,7>2[8:1],{4}2v4[8:1],
{8}3h[16:1],3h[16:1],2,{16}2,2,8,8,6,6,{4}7-3[8:1],
1b,1b,1b,{16}3,4,2,5,
1b,6,8,7,2,2,6,6,3,3,{8}8,{4}1b,
1b,1b,1b,{16}3,4,2,5,
{8}1b,{16}2,3,{8}2,{16}4,3,5,3,{8}6,{16}1b,,,6h[8:1],
,5,,7,{8}7,{16}1b,7,7,8,,,1b,8,{8}8,
7,{16}6,6,5,5,4,4,{8}3-7[8:1],3,{16},,8,8,
{12}2,2,2,{48}1b,,,8,,,{16}2,7,{8}3h[8:1],{16}4,3,,,{8}6/5,
{4}Cf,{8}7h[8:1],{16}6,7,5,8,,3,2,4,1b,5,
{8}1b,1b,1b,1b,1b,{16}1b,8v5[8:1],,,{8}8,
1b,1b,1b,1b,1b,{16}1b,8v3[8:1],,,{8}8,
{4}4-8[8:1],4/5,{8}1b/7-3[8:1],{16}8,7,,,{8}5,
6,{16}6,5,,3-8[16:1]/7-4[16:1],,,{4}3/7,{16}8,8,8,8,
{8}1b,{16}1b,1b,{8}1b,1b,1b,{16}1b,8v5[8:1],,,{8}8,
1b,1b,2,2,4h[8:1],{16}3,4,,,{8}6/5,
{4}4-8[8:1],4/7,{16}2-6[16:1],,,2/8,,,{8}4/5,
5/4,6/3,6/3,7/2,{2}8/1b,
{4}8-4[8:1],8/3p6[8:1],7q4[8:1]/3>8[8:1],7/3,
{8}2-6[8:1],3,2/7qq3[8:3],8,{4}7/2-8[8:1],2,
{8}8-4[8:1],7,8/3p6[8:1],2,{4}7qq5[8:1]/3qq1[8:1],7/3,
{8}5-1[8:1],6,5/4-8[8:1],3,4/6q2[8:1],5,6/3p7[8:1],4,
{4}3/8-4[8:1],8/3p6[8:1],7q4[8:1]/3>8[8:1],7/3,
{8}2-6[8:1],3,2/7-3[8:1],8,{4}7/2,{16}2/4,5,6,7,
{8}8h[8:3],{16},,,,2,8,{8}3,4,5,6,
{4}7/8,7-4[8:1]/8-3[8:1],{2}7/8,
{8}2,{16}7,8,{8}7,{16}1b,8,{8}2,{16}7,8,{8}6,{16}1b,8,
{8}2,{16}6,5,{8}7,{16}3,4,{8}2,{16}1b,8,2,2,{8}8,
1b,1b,{16}2,6,5,6,1b,5,4,5,1b,4,3,4,
1b,3,2,3,{8}1b,{24}7,8,7,{8}1b,{24}8,,7,{8}1b,{24}4,,6,
{4}3h[8:1],{8}1b,{16}4,5,4,5,4,5,4,5,4,5,
4,5,4,5,3,6,3,6,3,6,3,6,2,7,2,7,
2,8,2,8,{4}1b,{16}1b,1b,1b,1b,1b,1b,1b,1b,
1b,1b,1b,1b,1b,1b,1b,1b,{8}1b,8<3[8:1],8,2,
2,2,{16}1b,8,1b,8,1b,8,{8}2,{16}1b,7,,,2,
7,2,7,1b,8,,,{8}7>2[8:1],2v4[8:1],{16},,,,1b,
8,,8,,8,{8}2,{16}2,3,2,3,{8}2,{16}3,4,
{8}3,2,{16}1b,5,5,5,2,5,5,1b,,2/3,,3/4,
,4/5,,1b,{8}8,{16}1b,8,,2,2,5,3,3,8,8,
{8}1b,{16}8,8,{8}1b,1b,2/8,3/7,{16}8,1b,8,2,
{48},,,,,,,,,,{24}7,{12}6,{24}6,5,,5,{12}4,{24}4,3,,3,{12}2,{24}2,1b,,,,,,{8}1b,
{24}1b,8,,2,,1b,{48},,,,,,{16}1b,1b,{8}1b,{16}1b,1b,
,1b,{8}1b,{16}7h[8:1]/4h[8:1],,,6h[8:1]/3h[8:1],,,{8}5/2,{16}7h[8:1]/4h[8:1],,,6h[8:1]/3h[8:1],
,,{8}2/5,{16}7h[8:1]/4h[8:1],,,6h[8:1]/3h[8:1],,,1b/5h[8:1],1b,{8}1b,{16}1b,1b,
,1b,{8}1b,1b,1b,1b,1b,1b,{16}1b,8v5[8:1],
,,{8}8,1b,1b,1b,1b,1b,{16}1b,8v3[8:1],
,,{8}8,{4}4-8[8:1],4/5,{8}1b/7-3[8:1],{16}8,7,
,,{8}5,6,{16}6,5,,3-8[16:1]/7-4[16:1],,,{4}3/7,
{16}8,8,8,8,{8}1b,{16}1b,1b,1b,1b,1b,1b,{8}1b,{16}1b,8v5[8:1],
,,{8}8,1b,1b,2,2,4h[8:1],{16}3,4,
,,{8}6/5,{4}4-8[8:1],4/7,{16}2-6[16:1],,,2/8,
,,{8}4/5,5/4,6/3,6/3,7/2,{4}1b/8-5-2p7[4:3],
,,,Ch[2:1],
{8},,1b,{16}1b,1b,1b,1b,1b,1b,1b,1b,1b,1b,
1b,1b,1b,1b,1b,1b,1b,1b,1b,1b,1b,1b,1b,1b,1b,1b,
{4}8/2,4-8[8:1],4/5,{8}1b/7-3[8:1],{16}8,7,
,,{8}5,6,{16}6,5,,3-8[16:1]/7-4[16:1],,,{4}3/7,
{16}8/2,8/2,8/2,8/2,{32}1b,1b,{16}1b,1b,{32}1b,1b,{16}1b,1b,1b,{32}1b,1b,{16}1b,1b,1b,8v5[8:1],
,,{8}8,{16}1b,1b,{8}2-6[8:1],8-4[8:1],2,8,2,
1,6/5,{4}4-8[8:1],4/7,{16}2-6[16:1],,,2/8,
,,{8}4/5,5/4,6/3,6/3,7/2,{16}1b,6,5,6,
2,5,4,5,{8}6/4,7/3,{4}2/8,{16}1b,6,5,6,
3,5,4,5,{8}5-1[8:1]/4-8[8:1],6/3,{4}5/4,{16}8,3,4,3,
7,4,5,4,{8}3/5,3/5,{4}6/2,{8}8-5[8:1],8-3[8:1],
8-4[8:1],8-2[8:1],8-6[8:1],8,{4}8,{16}1b,2,8,7,
2,3,7,6,2,3,4,5,{4}6/7,{16}1b,8,2,2,
7,7,4,4,8-4[8:1],2,7,2,{4}8,{8}7/8-4[8:1],8,
8/6-2[8:1],6,6/4-8[8:1],4,4,6,{4}7h[4:1],
{16}4,6,2,8,{4}1b,,8-4[8:1],
8/3p6[8:1],7q4[8:1]/3>8[8:1],7/3,{8}2-6[8:1],3,
2/7qq3[8:3],8,{4}7/2-8[8:1],2,{8}8-4[8:1],7,
8/3p6[8:1],2,{4}7qq5[8:1]/3qq1[8:1],7/3,{8}5,8/7,
6/5,4/3,1b/2,5,6/3p7[8:1],4,{4}3/8-4[8:1],
8/3p6[0.4167##0.2083],{8}7q4[0.4167##0.2083]/3>8[0.4167##0.2083],,{4}7/3,{8}2-6[8:1],3,
2/7-3[8:1],8,{4}7/2,{16}2/4,5,6,7,{4}8h[8:3],
{16},,2,8,{8}3,4,5,6,{4}7/8,
7-4[8:1]/2-5[8:1],7/2,{8}6-8[8:1],8-2[8:1],{4}8-4[8:1],
,3-7b[16:1],{1},,,,,,,{8}8-3[8:1],
8-4[8:1],8-2[8:1],8-6[8:1],
8,8,{16},,1b,2,8,7,2,3,7,6,2,3,
4,5,{8}6/7,{16},,1b,8,2,2,7,7,4,4,8-4[8:1],2,
7,2,{8}8,,7/8-4[8:1],8,8/6-2[8:1],6,6/4-8[8:1],
4,4,6,7h[4:1],{16},,4,6,2,8,{8}1b,
,,,8-4[8:1],,8/3p6[8:1],,7q4[8:1]/3>8[8:1],
,7/3,,2-6[8:1],3,2/7qq3[8:3],8,7/2-8[8:1],
,2,,8-4[8:1],7,8/3p6[8:1],2,7qq5[8:1]/3qq1[8:1],
,7/3,,5,8/7,6/5,4/3,1b/2,
5,6/3p7[8:1],4,3/8-4[8:1],,8/3p6[8:1],,7q4[8:1]/3>8[8:1],
,7/3,,2-6[8:1],3,2/7-3[8:1],8,7/2,
{16},,2/4,5,6,7,{8}8h[8:3],{16},,,,2,8,{8}3,
4,5,6,7/8,,7-4[8:1]/2-5[8:1],,7/2,
,6-8[8:1],8-2[8:1],8-4[8:1],,,,3-7b[16:1],
{1},,,,,,,,,,,,,,,,,,,,,,,,,,,,,,,,,,,,,,,,,,,,,,,,,,,,,,,,,,,,,,{4},,,8-4[8:1],
8/3p6[8:1],7q4[8:1]/3>8[8:1],7/3,{8}2-6[8:1],3,
2/7qq3[8:3],8,{4}7/2-8[8:1],2,{8}8-4[8:1],7,
8/3p6[8:1],2,{4}7qq5[8:1]/3qq1[8:1],{2}7/3,
E
&lv_6=1
&des_6=
&inote_6=
(144)
E
&lv_7=13+?
&des_7=個々々々々々貓
&inote_7=
(144){4},{16},,,,,,,,,,,,2h[16:13],
,,,,,,,,,,,,8,1b,6,
3,3,{8}5,7h[8:1],{16}5,6,4,4,{8}5,2,{16}4,3,
4,3,{8}5,6,6,7,{16}8,1b,{8}7,6/4,
{16}2h[16:3],,,4,{8}2,{16}1b,8,{8}2,{16}2,1b,{8}3,7,
{16}2,2,4,3,5,5,{8}4,{2}8-4[8:1],
{8}3h[16:1],3h[16:1],2h[16:1],2,1b,7>2[8:1],{4}2v4[0.4167##0.2083],
{8}3h[16:1],3h[16:1],2,2,1b,7>2[8:1],{4}2v4[8:1],
{8}3h[16:1],3h[16:1],2h[16:1],2,1b,7>2[8:1],{4}2v4[8:1],
{8}3h[16:1],3h[16:1],2,{16}2,2,8,8,6,6,{4}7-3[8:1],
1b,1b,1b,{16}3,4,2,5,
1b,6,8,7,2,2,6,6,3,3,{8}8,{4}1b,
1b,1b,1b,{16}3,4,2,5,
{8}1b,{16}2,3,{8}2,{16}4,3,5,3,{8}6,{16}1b,,,6h[8:1],
,5,,7,{8}7,{16}1b,7,7,8,,,1b,8,{8}8,
7,{16}6,6,5,5,4,4,{8}3-7[8:1],3,{16},,8,8,
{12}2,2,2,{48}1b,,,8,,,{16}2,7,{8}3h[8:1],{16}4,3,,,{8}6/5,
{4}Cf,{8}7h[8:1],{16}6,7,5,8,,3,2,4,1b,5,
{8}1b,1b,1b,1b,1b,{16}1b,8v5[8:1],,,{8}8,
1b,1b,1b,1b,1b,{16}1b,8v3[8:1],,,{8}8,
{4}4-8[8:1],4/5,{8}1b/7-3[8:1],{16}8,7,,,{8}5,
6,{16}6,5,,3-8[16:1]/7-4[16:1],,,{4}3/7,{16}8,8,8,8,
{8}1b,{16}1b,1b,{8}1b,1b,1b,{16}1b,8v5[8:1],,,{8}8,
1b,1b,2,2,4h[8:1],{16}3,4,,,{8}6/5,
{4}4-8[8:1],4/7,{16}2-6[16:1],,,2/8,,,{8}4/5,
5/4,6/3,6/3,7/2,{2}8/1b,
{4}8-4[8:1],8/3p6[8:1],7q4[8:1]/3>8[8:1],7/3,
{8}2-6[8:1],3,2/7qq3[8:3],8,{4}7/2-8[8:1],2,
{8}8-4[8:1],7,8/3p6[8:1],2,{4}7qq5[8:1]/3qq1[8:1],7/3,
{8}5-1[8:1],6,5/4-8[8:1],3,4/6q2[8:1],5,6/3p7[8:1],4,
{4}3/8-4[8:1],8/3p6[8:1],7q4[8:1]/3>8[8:1],7/3,
{8}2-6[8:1],3,2/7-3[8:1],8,{4}7/2,{16}2/4,5,6,7,
{8}8h[8:3],{16},,,,2,8,{8}3,4,5,6,
{4}7/8,7-4[8:1]/8-3[8:1],{2}7/8,
{8}2,{16}7,8,{8}7,{16}1b,8,{8}2,{16}7,8,{8}6,{16}1b,8,
{8}2,{16}6,5,{8}7,{16}3,4,{8}2,{16}1b,8,2,2,{8}8,
1b,1b,{16}2,6,5,6,1b,5,4,5,1b,4,3,4,
1b,3,2,3,{8}1b,{24}7,8,7,{8}1b,{24}8,,7,{8}1b,{24}4,,6,
{4}3h[8:1],{8}1b,{16}4,5,4,5,4,5,4,5,4,5,
4,5,4,5,3,6,3,6,3,6,3,6,2,7,2,7,
2,8,2,8,{4}1b,{16}1b,1b,1b,1b,1b,1b,1b,1b,
1b,1b,1b,1b,1b,1b,1b,1b,{8}1b,8<3[8:1],8,2,
2,2,{16}1b,8,1b,8,1b,8,{8}2,{16}1b,7,,,2,
7,2,7,1b,8,,,{8}7>2[8:1],2v4[8:1],{16},,,,1b,
8,,8,,8,{8}2,{16}2,3,2,3,{8}2,{16}3,4,
{8}3,2,{16}1b,5,5,5,2,5,5,1b,,2/3,,3/4,
,4/5,,1b,{8}8,{16}1b,8,,2,2,5,3,3,8,8,
{8}1b,{16}8,8,{8}1b,1b,2/8,3/7,{16}8,1b,8,2,
{48},,,,,,,,,,{24}7,{12}6,{24}6,5,,5,{12}4,{24}4,3,,3,{12}2,{24}2,1b,{48},,,,,,,,,,{16}1b,
8,{8}2,{16}8,1b,,,1b,1b,{8}1b,{16}1b,1b,
,1b,{8}1b,{16}7h[8:1]/4h[8:1],,,6h[8:1]/3h[8:1],,,{8}5/2,{16}7h[8:1]/4h[8:1],,,6h[8:1]/3h[8:1],
,,{8}2/5,{16}7h[8:1]/4h[8:1],,,6h[8:1]/3h[8:1],,,1b/5h[8:1],1b,{8}1b,{16}1b,1b,
,1b,{8}1b,1b,1b,1b,1b,1b,{16}1b,8v5[8:1],
,,{8}8,1b,1b,1b,1b,1b,{16}1b,8v3[8:1],
,,{8}8,{4}4-8[8:1],4/5,{8}1b/7-3[8:1],{16}8,7,
,,{8}5,6,{16}6,5,,3-8[16:1]/7-4[16:1],,,{4}3/7,
{16}8,8,8,8,{8}1b,{16}1b,1b,1b,1b,1b,1b,{8}1b,{16}1b,8v5[8:1],
,,{8}8,1b,1b,2,2,4h[8:1],{16}3,4,
,,{8}6/5,{4}4-8[8:1],4/7,{16}2-6[16:1],,,2/8,
,,{8}4/5,5/4,6/3,6/3,7/2,{4}1b/8-5-2p7[4:3],
,,,Ch[2:1],
{8},,1b,{16}1b,1b,1b,1b,1b,1b,1b,1b,1b,1b,
1b,1b,1b,1b,1b,1b,1b,1b,1b,1b,1b,1b,1b,1b,1b,1b,
{4}8/2,4-8[8:1],4/5,{8}1b/7-3[8:1],{16}8,7,
,,{8}5,6,{16}6,5,,3-8[16:1]/7-4[16:1],,,{4}3/7,
{16}8,8,8,8,{32}1b,1b,{16}1b,1b,{32}1b,1b,{16}1b,1b,1b,{32}1b,1b,{16}1b,1b,1b,8v5[8:1],
,,{8}8,{16}1b,1b,{8}2-6[8:1],8-4[8:1],2,8,2,
3,6/5,{4}4-8[8:1],4/7,{16}2-6[16:1],,,2/8,
,,{8}4/5,5/4,6/3,6/3,7/2,{16}1b,6,5,6,
2,5,4,5,{8}6/4,7/3,{4}2/8,{16}1b,6,5,6,
3,5,4,5,{8}5-1[8:1]/4-8[8:1],6/3,{4}5/4,{16}8,3,4,3,
7,4,5,4,{8}3/5,3/5,{4}6/2,{8}8-5[8:1],8-3[8:1],
8-4[8:1],8-2[8:1],8-6[8:1],8,{4}8,{16}1b,2,8,7,
2,3,7,6,2,3,4,5,{4}6/7,{16}1b,8,2,2,
7,7,4,4,8-4[8:1],2,7,2,{4}8,{8}7/8-4[8:1],8,
8/6-2[8:1],6,6/4-8[8:1],4,4,6,{4}7h[4:1],
{16}4,6,2,8,{4}1b,,8-4[8:1],
8/3p6[8:1],7q4[8:1]/3>8[8:1],7/3,{8}2-6[8:1],3,
2/7qq3[8:3],8,{4}7/2-8[8:1],2,{8}8-4[8:1],7,
8/3p6[8:1],2,{4}7qq5[8:1]/3qq1[8:1],7/3,{8}5,8/7,
6/5,4/3,1b/2,5,6/3p7[8:1],4,{4}3/8-4[8:1],
8/3p6[8:1],7q4[8:1]/3>8[8:1],7/3,{8}2-6[8:1],3,
2/7-3[8:1],8,{4}7/2,{16}2/4,5,6,7,{4}8h[8:3],
{16},,2,8,{8}3,4,5,6,{4}7/8,
7-4[8:1]/2-5[8:1],7/2,{8}6-8[8:1],8-2[8:1],{4}8-4[8:1],
,3-7b[16:1],{1},,{4},,,{8},2-6[16:1],
{16},2/8,,,{8}4/5,5/4,
6/3,6/3,7/2,{16}1b,6,5,6,2,5,4,5,{8}6/4,
7/3,2/8,{16},,1b,6,5,6,3,5,4,5,{8}5-1[8:1]/4-8[8:1],
6/3,5/4,{16},,8,3,4,3,7,4,5,4,{8}3/5,
2/6,7/1,,8-5[8:1],8-3[8:1],8-4[8:1],8-2[8:1],8-6[8:1],
8,8,{16},,1b,2,8,7,2,3,7,6,2,3,
4,5,{8}6/7,{16},,1b,8,2,2,7,7,4,4,8-4[8:1],2,
7,2,{8}8,,7/8-4[8:1],8,8/6-2[8:1],6,6/4-8[8:1],
4,4,6,7h[4:1],{16},,4,6,2,8,{8}1b,
,,,8-4[8:1],,8/3p6[8:1],,7q4[8:1]/3>8[8:1],
,7/3,,2-6[8:1],3,2/7qq3[8:3],8,7/2-8[8:1],
,2,,8-4[8:1],7,8/3p6[8:1],2,7qq5[8:1]/3qq1[8:1],
,7/3,,5,8/7,6/5,4/3,1b/2,
5,6/3p7[8:1],4,3/8-4[8:1],,8/3p6[8:1],,7q4[8:1]/3>8[8:1],
,7/3,,2-6[8:1],3,2/7-3[8:1],8,7/2,
{16},,2/4,5,6,7,{8}8h[8:3],{16},,,,2,8,{8}3,
4,5,6,7/8,,7-4[8:1]/2-5[8:1],,7/2,
,6-8[8:1],8-2[8:1],8-4[8:1],,,,3-7b[16:1],
{1},,,,,,,,,,,,,,,,,,,,,,,,,,,,,,,,,,,,,,,,,,,,,,,,,,,,,,,,,,,,,,{4},,,8-4[8:1],
8/3p6[8:1],7q4[8:1]/3>8[8:1],7/3,{8}2-6[8:1],3,
2/7qq3[8:3],8,{4}7/2-8[8:1],2,{8}8-4[8:1],7,
8/3p6[8:1],2,{4}7qq5[8:1]/3qq1[8:1],{2}7/3,
E
