&title=ひどい忍者【リズム天国】
&artist=みせる
&first=1.075
&des= ( ; ω ; )
&lv_7=忍
&inote_7=(139){4},,,,,,,,,,,A1,
,,,,,,,1b,
{8},,,,,,,,,,A2,
A3,{2}A4,
{8},,,,,,,,,,2b,
3b,{2}4b,
{8},,,,,,,,A5,
{16}A6,A7,{8}A8,A1,{2}A2,
{8},,,,,,,,5b,
{16}6b,7b,{8}8b,1b,{2}2b,
{16},,A3,A4,{8}A5,A6,{16}A7,,,A8,{8}A1,{16}A2,A3,
{8}A4,{16}A5,A6,{24}A7,A8,A1,A2,,,{2}A3,
{16},,3b,4b,{8}5b,6b,{16}7b,,,8b,{8}1b,{16}2b,3b,
{8}4b,{16}5b,6b,{24}7b,8b,1b,2b,,,{2}3b,
{32}A4,A5,{16}A6,A7,A8,A1,{32}A2,A3,{16}A4,A5,{32}A6,A7,{16}A8,A1,A2,{32}A3,A4,,,{8}A5,
{32}A6,A7,A8,A1,{16}A2,A3,{32}A4,A5,A6,A7,{16}A8,A1,{2}A2,
{32}4b,5b,{16}6b,7b,8b,1b,{32}2b,3b,{16}4b,5b,{32}6b,7b,{16}8b,1b,2b,{32}3b,4b,,,{8}5b,
{32}6b,7b,8b,1b,{16}2b,3b,{32}4b,5b,6b,7b,{16}8b,1b,{2}2b,
{16}A3,A4,{32}A5,A6,A7,A8,,A1,,A2,A3,A4,{16}A5,A6,{32}A7,A8,{16}A1,A2,{32}A3,A4,,A5,,A6,{16}A7,
A8,A1,{32}A2,A3,,A4,,A5,{16}A6,A7,{32}A8,A1,{16}A2,A3,{32}A4,A5,{16}A6,{32}A7,A8,,A1,A2,A3,{16}A4,
3b,4b,{32}5b,6b,7b,8b,,1b,,2b,3b,4b,{16}5b,6b,{32}7b,8b,{16}1b,2b,{32}3b,4b,,5b,,6b,{16}7b,
8b,1b,{32}2b,3b,,4b,,5b,{16}6b,7b,{32}8b,1b,{16}2b,3b,{32}4b,5b,{16}6b,{32}7b,8b,,1b,2b,3b,{16}4b,
{32}A5,A6,{16}A7,A8,{48}A1,A2,A3,{16}A4,A5,{32}A6,A7,{16}A8,A1,{48}A2,A3,A4,{16}A5,A6,{32}A7,A8,{16}A1,{8}A2,
{32}A3,A4,{16}A5,{48}A6,A7,A8,A1,{96},,,,{32}A2,A3,{16}A4,{48}A5,A6,A7,A8,,,{2}A1,
{32}5b,6b,{16}7b,8b,{48}1b,2b,3b,{16}4b,5b,{32}6b,7b,{16}8b,1b,{48}2b,3b,4b,{16}5b,6b,{32}7b,8b,{16}1b,{8}2b,
{32}3b,4b,{16}5b,{48}6b,7b,8b,1b,{96},,,,{32}2b,3b,{16}4b,{48}5b,6b,7b,8b,,,{2}1b,
{32}A2,A3,A4,A5,A6,A7,A8,A1,{8}A2,A3,{32}A4,A5,A6,A7,A8,A1,A2,A3,{8}A4,A5,
{32}A6,A7,A8,A1,A2,A3,,A4,A5,A6,A7,A8,A1,A2,A3,A4,{64}A5,{4},{16},{64}A6,,,,,,,,,,,{32}2b,
3b,4b,5b,6b,7b,8b,1b,{8}2b,3b,{32}4b,5b,6b,7b,8b,1b,2b,3b,{8}4b,5b,
{32}6b,7b,8b,1b,2b,3b,,4b,5b,6b,7b,8b,1b,2b,3b,4b,{64}5b,{4},{16},{64}6b,{1},,,{4},,,{16},{32}A7,
{1},{4},,,{16},,,{32},7,
{1},{16},{4}A8/A1/A7/A2/A6/A3/A5/A4,
,,,,,,,,,,,,,,,,,,{32},Cf,
E
