&title=Umbrella
&artist=Warak
&first=0
&des=For My Beloved
&lv_5=13
&inote_5=(120)
{16},,,,,,,,,,,,,,,,
E5,,E6,,E4,,C,,,,D8,,D7,,B7,,
,,D2,,D3,,B2,,,,,,,,,,
3x/6x,,4,,5,,3x/6x,,,,3,,2,,1x/3x,,
,,6,,7,,6x/8x,,,,37,,1x^7v5[2:1]*^3v5[2:1]/5x,,,,
,,,,,,,,,,,,8b,,,,
5/7h[4:1],,,,4,,4-1[8:1],,,,6,,6,,,,
8/2h[4:1],,,,7-1[8:1],,7-5[8:1],,,,,,3,,,,
4/6h[4:1],,,,3,,3-6[8:1],,,,8,,8,,,,
7/1h[4:1],,,,5,,6h[4:1]/4,,,,2,,13,,,,
8-2-6-8-4[2:1],,3,,4,,5h[8:3],,,,,,,,,,
1-7-3-1-5[2:1],,6,,5,,4h[8:3],,,,,,,,,,
8-2-6-8-4[2:1],,3,,4,,5h[8:3],,,,,,,,{24}E6,B5,B4,
{16}E4,,8,,8b-4[8:1],,,,4b,,,,2xb/6xb,,,,
4/2h[4:1],,3,,5,,5-8[8:1],,,,3,,3,,,,
1/7h[4:1],,8,,2^7[8:1],,2^5[8:1],,,,,,6,,,,
5/3h[4:1],,4,,6,,6-3[8:1],,,,1,,1,,,,
2/8h[4:1],,,,4,,3h[4:1]/5,,,,7,,86,,,,
3-7-1[4:1],,,,1-3[8:1],,1-5[8:1],,,,,,,,,,
6-2-8[4:1],,,,8-6[8:1],,8-4[8:1],,,,,,,,,,
8bqq8[4:1],,6,,2,,4bqq4[4:1],,,,Chf[4:1],,,,,,
,,2b/7b,,2b/7b,,{24}D5,A4/A5,D6/D4,{16}A6/A3,,8x,,8xh[4:1],,,,
3-7v5[4:1],,3,,7,,8,,1-7[8:1],,1-3[8:1],,,,,,
5-1[8:1],,,,4,,4,,{32}D8,A7,D7,A6,D6,A5,D5,A4,D4,A3,D3,A2,D2,A1,D1,A8,
{16}4qq5[4:1],,,,{24}E6,E7,E8,E1,E2,E3,{16}E4,,3xv5[8:1]/7xv5[8:1],,28,,3^1[8:1]/7^1[8:1],,
,,37,,,,6,,{32}A1/6,D1,A8,D8,A7,D7,A6,D6,A5,D5,A4,D4,A3,D3,A2,D2,
{16}8b-4[8:1],,,,5,,2b-6[8:1],,,,5^8[8:1],,5,,3bh[8:3],,
,,{48}E3,B3,B4,B5,B6,E7,{16},,3xbqq8[8:3]/7xbqq4[8:3],,,,,,,,,,
,,{24}A1,E2,E3,B8,C,B4,E7,E6,A5,A1,E2,E3,B8,C,B4,E7,E6,A5,{16}1xbh[4:1],,
,,8,,2-5[8:1]/7-4[8:1],,,,,,,,2x/7x,,,,
3-5[8:1],,8-4[8:1],,3,,8^3[8:1],,,,6/8^5[8:1],,,,2/8V26[4:1],,
,,6V84[4:1]/8,,,,5h[4:1],,,,,,5,,,,
8-4[8:1],,4,,3,,2-6[8:1],,,,2v4[8:1]/6v4[8:1],,,,2V86[8:1],,
,,4w8[8:1]/2,,,,Cf/B8/B4,,,,2,7,2,8,1,8,
2-6[8:1],,8-5[8:1],,2,,8-3[8:1],,,,8-4[8:1]/6,,7,,28,,
,,5^8[8:1]*pp5[4:1],,5,,5x^2[8:1]*qq5[4:1],,,,,,,,,,
6-4[8:1],,7,,4,,3>7[8:1],,,,5pp7[8:1]*qq3[8:1],,6,,5,,
,,4b/6b,,4b/6b,,{32}E2,E1,{16}E8,6,5,6,4,5,3,4,3,
6-4[8:1],,1-5[8:1],,6,,1^6[8:1],,,,3/1^4[8:1],,,,7/1V73[4:1],,
,,3V15[4:1]/1,,,,4h[4:1],,,,,,4,,,,
1-5[8:1],,5,,6,,7-3[8:1],,,,7v5[8:1]/3v5[8:1],,,,7>3[8:1],,
,,5w1[8:1]/7,,,,Cf/B1/B5,,,,7,2,7,1,8,1,
7-3[8:1],,1-4[8:1],,7,,1-6[8:1],,,,1-5[8:1]/3,,2,,71,,
,,4pp4[4:1]*qq4[4:1],,4,,4x>5[8:3],,,,,,,,,,
4b,,{24}E1,E8,A7,B2,C,B6,A3,E4,E5,E1,E8,A7,B2,C,B6,A3,E4,E5,{16}8xh[8:7],,
,,,,,,,,6-2[8:1],,,,,,,,
1x/8x,,,,,,{32}D7,D6,{16}D5,,,,,,,{32}D3,D4,{16}D5/Ch[16:11],
,,,,,,,,,,3,,4,,5,,
3b/6b,,,,,,1/2,,,,,,,,7/8,,
,,45,,4-1[8:1]/5-8[8:1],,,,,,,,2x/7x,,,,
6-2v4[4:1],,6,,2,,1,,8-2[8:1],,8-6[8:1],,,,,,
4-8[8:1],,,,5,,5,,{32}D2,A2,D3,A3,D4,A4,D5,A5,D6,A6,D7,A7,D8,A8,D1,A1,
{16}5pp4[4:1],,,,{24}E4,E3,E2,E1,E8,E7,{16}E6,,6xv4[8:1]/2xv4[8:1],,71,,6^8[8:1]/2^8[8:1],,
,,62,,,,3,,{32}A8/3,D1,A1,D2,A2,D3,A3,D4,A4,D5,A5,D6,A6,D7,A7,D8,
{16}1b-5[8:1],,,,4,,7b-3[8:1],,,,4^1[8:1],,4,,6bh[8:3],,
,,{48}E7,B6,B5,B4,B3,E3,{16},,6xbpp1[8:3]/2xbpp5[8:3],,,,,,,,,,
,,{24}A8,E8,E7,B1,C,B5,E3,E4,A4,A8,E8,E7,B1,C,B5,E3,E4,A4,{16}8xbh[4:1],,
,,1,,7>4[1:1]/2<5[1:1],,,,,,,,,,,,
,,,,,,,,,,,,1-5[8:1],,,,
7xh[4:15],,,,,,,,,,,,,,,,
,,,,,,,,,,,,,,,,
3h[4:7],,,,,,,,,,,,,,,,
,,,,,,,,,,,,,,,,
{24}A1,E1,D2,B1,A2,E2,D3,B2,A3,E3,D4,B3,A4,E4,D5,B4,A5,E5,D6,B5,A6,E6,D7,B6,
{24}A2,E2,D3,B2,A3,E3,D4,B3,A4,E4,D5,B4,A5,E5,D6,B5,A6,E6,D7,B6,A7,E7,D8,B7,
{24}D3,B2,A3,E3,D4,B3,A4,E4,D5,B4,A5,E5,D6,B5,A6,E6,D7,B6,{16}8xb,,8xbh[8:3],,
,,1,,1,,2x/7x,3x/6x,4x/5x,,2b/7b,,2/7,,,,
3-5[8:1],,8-4[8:1]/2,,37,,8^3[8:1],,,,6/8^5[8:1],,7,,2/8V26[4:1],,
1,,6V84[4:1]/8,,,,5h[4:1],,,,,,5,,,,
8-4[8:1],,57,,48,,2-6[8:1],,35,,2v4[8:1]/6v4[8:1],,,,2<6[8:1],,
,,4-8[8:1]/2,,,,{48}B4f,E4/E5,B3/B5,B2/B6,E2/E7,,{16},,2,7,2,8,1,8,
2-6[8:1],,8-5[8:1]/1,,27,,8-3[8:1],,,,8-4[8:1]/6,,7,,28,,
,,3v8[8:1]/5v8[8:1],,17,,3qq4[4:1]/5pp4[4:1],,,,,,,,,,
5b,,{24}E1,E2,A2,B7,C,B3,A6,E6,E5,E1,E2,A2,B7,C,B3,A6,E6,E5,{16}2xqq7[8:7],,
,,,,,,,,,,,,,,,,
6,,5,,4,,3,,,,,,,,,,
6,,5,,4,,E2,,,,,,,,,,
3,,4,,5,,6,,,,,,,,,,
3,,4,,5,,E8,,,,,,,,,,
6h[4:3],,,,4,,4h[8:3],,,,,,,,,,
3h[4:3],,,,5,,5h[8:3],,,,,,,,,,
E5,,E4,,E6,,C,,,,D2,,D3,,B2,,
,,D8,,D7,,B7,,,,,,,,,,
6x/3x,,5,,4,,6x/3x,,,,6,,7,,8x/6x,,
,,3,,2,,3x/1x,,,,62,,8x-5v4[8:5]*-3v4[8:5]/4x,,,,
,,,,,,,,,,,,8-4b[8:1],,,,
,,,,,,,,,,,,,,,,
E
