&title=Johann.Mouse(chapter Ⅱ)
&artist=-
&first=0
&des=How to play the waltz in six "Easy" lessons
&clock_count=4
&lv_5=13+
&inote_5=||
Chapter
2
||
1.?
(80){1},
{8},,{16},7x>1-5-3[8:3],{8},,,,2h[2:1],
{16},,,,,,7h[16:9],,,,,,,,,{32}1xh[32:5],,
{32},,,7,,,,6xh[32:5],{16},,3,,5/4xh[8:1],,5s1[5:1],,,,,,
{16},{32},2h[32:5],{16},,8,,3h[8:1],,6,,4h[8:1],,7h[64:9],,{64},5h[64:9],,,,,,,
{32},4h[32:5],,,,,2,,,,,3,,,,4h[8:3],,,,5V72b[8:1],,,,,,,,,,,,,
{16}5x<4[4:1],,,,,,,,,,,,
||
2.蓝色多瑙河
(144)
{6}3,4x,5,5pp8[4:3],,{24},2,
{12},{24},2,,{12},,,3,,3,,,,{24}6,{12},
{24},6,,,,5x,{12},4,,4qq1[4:3],,,,{24},7,,,
{24},7h[6:1],,{12},,,6,,6h[12:2],,,,{24},,,
||
How
to
play
the
waltz
in
six
"Easy"
lessons
(133)
{12}E4,,E5,,E6,,E7,,E8,,A8,,
{12}D1,,A1,,E1/B8/B1,,E2,,E3,,E4,,
{12}6xh[12:1],3,,,,,,,,,B2/B3/E3,,
{12}5xq8[4:1],,,,,,,B1/B2,B7/B6,Ch[4:7],,,
||
Lesson
1
{1},,
{12},4,,,,,,,,,B3,,
||
Lesson
2
{1},
{16},,,,,,,,,,4,,4,,,,
||
Lesson
3
{16},,B1,,,,,,,,,,6,,,,
{12},4,,4,,,,,B1,,,,
||
Lesson
4
{12},,,6,,6,,,4,,4,,
||
Lesson
5
{16},,,,,,B1,,,,,,,,,6,
{12},6,{24},5x,{12},,,{24},4,,,,4,{12},,,
||
Lesson
6
{16},,,B1,,,,,,,,,,,,6,
{24},,,6,,,5x,,,4,,,,4,,,,,,,2x,,,,
{24}2x,,,,,,,3x,,,,3xq2[26#32:1],
{1},,
{4},
||
Congratulation!
(85)
{24}6h[6:1]/4h[6:1],,,,,,,6h[6:1]/4h[6:1],,,,,,,5h[6:1]/3h[6:1],,,,,,,,{48},,4h[4:1]/2h[4:1],,
{24},,,,,,,,{48},4b/2b,{24},,,{32}2,4,3,5,4,6,5,7,6-1[16:1],,,,,,,,
{32}6,,,,,7,1,8,2,1,3,2,4-8[16:1],,,,,,,4b,,,,,1bw5b[8:9]/7b,,,,,,,,
{1},
||
Now,
let's
play!
(165)
{12},,,,,,,,,,,,3h[4:1],,,4h[2:1],,,,,,5,5qq3[1:2]*pp7[1:2],,
{1},,,
{4},{32},,,,
{24}E7,,,,,,,,,,E7,,,,,,,,,,,B5,E5,
{24},,,,,,,,,,,,4x,,,,,,,,,,,,
{24},,,6h[6:1],,4h[12:1],,,,,{12},,3,
{12}5,2,4,{16}1pp4[2:1],,,,,,,,{12},5,6,7,8<3p8[1:1],,{16},,,,,,,,,,,,
{24},,,3x,,,,,4x,,,,,,5xh[3:1],,,,,,,,7x,,
{16},,,7,4,6,3,5,2>5[8:1],,,,2,,,,
{16}7,4,6,3,5,2>7pp2[1:1],{16},,,,,,,,,,,
{16},,,,4x,,,,5x,,,,6xh[16:6],,,
{16},,,4x,,,,6,3,5,2,4,1>4[8:1],,,,
{16}1,,,,6,3,5,2,4h[4:1],,,,1,4,2,4,3,4,
{16}3,5,3,6,3,7,3xh[8:5],,,,,8x,,,
{16},,7xh[16:8],,,,,,,,A4,,,,7,4,
{16}6,3,5,2>5[8:1],,,,2,,,,7,4,6,3,
{16}5,2h[16:3],,,7,3,6,4,5,3,7,4,6,5,
(220)
{24}7h[8:1],,,3,,,3h[8:1],,,8,,,8h[8:1],,,2-5[6:1],,,,,2bx/7bxh[24:7],,,,
{24},,,,,,,,,,2V47[4:1]/8,,,2/8,,,2/8,,,,,,,,
{24},,,,,3/7V53[4:1],,,3/7,,,3/7,,,,,,,,,,,,,
{24}2x,,6x,,2xh[4:1],,,,,,4h[24:5],,,,,5h[24:6],,,,,,7bh[1:2],,,
{24},,,,,,,,{48},{24}2-5[8:1],,,2,,,2,,,,,,,,,,
{24},{48},{24},3-6[8:1],,,3,,,3,,,,,,,,,,,,1,,8,
{24},1h[8:1],,,,,7h[8:1],,,,,,3h[6:1],,,,,,,,5bpp8[4:5]/4bh[4:2],,,,
{24},,,,,,,,,,,,,,,,,,,,B2,,,
{24},,,B3/A3,,,,,,,,,,7bx,,,,,,E4/7x,,,,,,
{24}B3/B4/6x,,,,,,B4/B3/E4/5x-8v1-4<1>5[4:13],,,,,,,,,,,,,,,,,,
{1},,
{4},,,,
||
3.春之声圆舞曲
{24},,,,,,,,,3>6p4[8:7],,,,,,,,,,,,,,,
{24},,,,,,,,,,,,,,,,,,,,,,,,
{24},,,,,,3h[4:3]/Ch[4:3],,,,,,,,,,,,,,,,,,
{2},
(210)
{24}3x/6x,,,,,,,,,,,2x>5[4:1],,,,5,,,6>2[4:1],,,7,,,
{24}7xh[24:7],,,,,,,,,,,,,2x/7x,,,,,,1,,,6x>3[4:1],,
{24},2,,,3>8[4:1],,,2,,,2h[24:12],,,,,,,,,,,,6>3[4:1],,
{24},,,,,,,,2h[24:11],,,,,,,,,,,1<5[3:1],,,,,
{24},,,,,2,,,,,3,,,,,5,,,,,7x/2xq7[2:1],,,,
{24}6,,,,,,5,,,,,4h[24:10],,,,,,,,,,3,,,
{24}2/6x,,,1x,,,1x<6[4:1],,,5,,,5h[24:11],,,,,,,,,,,4,
{24},,,,3/5,,,,2x,,,6x,,,7xp2[4:1],,,3,,,4,,,,
{24},,5bxh[24:14],,,,,,,,,,,,,,6,,,,,,3x/8x-4[4:1],,
{24},,,,,,,2,,,3,,,5,,,6,,,3h[4:1],,,,,
{24},8,,,,,3,,7,,4,,7,,3,,6>1[4:1],,,,,,,,
{24},,,,,,{32}A7,D7,A6,D6,A5,D5,A4,D4,A3,D3,A2,D2,A1f,,,,{24},,,,,,
(140)
{24}C/6h[12:5],,,,,,,,,,2,,,,5h[24:8],,,,2,,,,3,,
{24}A4,,,,7,,,,2,,,B1/6h[24:10],,,,,,B4,,,,A1,,,
{24},,5h[24:4],,,,2,,,,3h[4:1]/6,,,,,,5h[6:1],,,,3,,,,
{24}2h[6:1]/5,,,,8,,7,,6h[8:1]/1,,,5,,,3h[6:1],,,,{20}8b,2,1x,3,8,
{20}4,7,4,6,4,5x,3,5,2,5,1,5x,1,7,2,6,3,5,4x,8,
{20}2,7,3x,6,4x,5,3,6,2,6,1,5x,8,6,1,7x,,6x,,5x/4x,
{20},3x,,2x,,5xh[10:1]/1x,,2,3,4,5,6,7,8,1,2,{96}3,,{32}8bx,7,6,5,
{32}4,3,2,1,8,7,6,5/1bx,2,3,4,5,6,7,8,1,2,3,4,5,6,7,8h[8:1],,,,,,,,,1,2,3,4,5,6,7,8,
{32}1,2,3,4,{48}5bx,6x,7x,8x,1x,2x,3x,4x,5x,6x,7x,,,,,,,,,,{96},,,,
{1},,,
{24},,,,,,,,,,,,,,,,,,,,,,,,,,
(180)
{24}3,,,7,,,4,,,6,,,3,,,7,,,4,,,6,,,
{24}3h[8:1],,,7,,,4h[8:1],,,6,,,3h[8:1],,,7,,,4h[8:1],,,6,,,
{24}5h[8:3]/4,,,3,,,2,,,1,,,6xh[8:3],,,1,2,3,,,,4h[24:20],,,
{24}8x,,,7,6,5,,,,7,,,8x,,,7,6,5,,,3,,,
{24}2/6,,,,,,3/7,,,,,,4/8h[2:1],,,6,,,1,,,3,,,
{24}4<7[8:1],,,,,,4/3,,,,,,1q5[8:1],,,,,,1/7,,,,,,
{24}4x>1[8:1],,,6,,,8,,,,,,5x<8[8:1],,,3,,,1,,,,,,
{24}2/7x,,,,,,4/5-8[8:1]*>2[8:1],,,,,,5,,,,,,,C,,,,,,
{24}8,,,1x,2,3,8,,,1x,2,3,8,,,2x,3,4,8,,,2x,3,
{24}4,8,,,3x,4,5,8,,,3x,4,5,8-4[8:1],,,,,8,,,,,,,
{24}1,,,7x,6,5,1,,,7x,6,5,1,,,6x,5,4,1,,,6x,5,
{24}4,1,,,5x,4,3,1,,,5x,4,3,1-5[8:1],,,,,1,,,,,,
{24}8,,,1x,2,3,8,,,7x,6,5,1,,,2x,3,4,8,,,6x,5,
{24}4,1,,,3x,4,5,8,,,5x,4,3,1h[4:1],,,,,,8,,,,,
{24}6/3,,{16},3,5,4,6,3,7,2,,8x/1x,,6,4,5,3,
{16}6,,1h[32:5],,{32},{16}8,2,7,3,8q1[4:1],4,7,3,,,,,
{16}2h[8:1],,1x,,3,4,5,,6h[8:1],,5x,,4,3,2,,
{16}1,,1/8,,7,2,7,2,6,3,6,3,5h[32:8],,,,
{24}2h[4:1],,,,,,6h[4:1],,,,,,3h[4:1],,,,,,5h[32:9],,,,,,
