&title=打打打打打打打打打打
&artist=ヒゲドライバー join. SELEN
&first=0.6
&des_6=筋肉バカ夢物語
&lv_6=?
&inote_6=(156){4}{1}2pp5b[8:11],{4},,,,{8}8h[16:46],4h,,,,{16}4h,,,,,{32},{16}4h,,,,,{32},4h,,{16},,,4h,,,{32},4h,,,,,4h,,,,{16}4xh,4xh,4xh,4xh,4xh,4xh,4xh,4xh,4xh,4xh,4xh,4xh[8:1],,,,{12}4b/8b,48,48,3b/7b,37,37,2b>5[8:1]/6b<1[8:1],26,26,2bx/6bx,,,
{16}45,,6,5,,,78,,18,,2,1,,,34,,45,,3,4,,,28,,{8}5v7[8:1]/6v4[8:1],47,56,,
{16}21,,8,1,,,75,,56,,4,5,,,38,,21,,4,3,,,2pp5[4:1]/4,,{8}5,6,7b,8b,
{16}8,,4,4,5,,78,,18,,2,2,1,,34,,45,,3,3,4,,27,,{8}4-1[8:1]/5-8[8:1],36,45,,
{16}18,,7,7,8,,75,,64,,5,5,4,,61,,78,,5,5,4,,7qq3[4:1]/3,,{8}2,1,1,1,
{4}1h[4:3],3,3,3,{8}31,1,24,2,35,3,46,4b,{16}5,6,5,,4,5,4,,3,4,3,,3,4,3,,6,5,6,,5,4,5,,5,5,3,3,7,7,1bh[8:7],,{4}7,7,7,7,{16}1,2,3,4,8,7,6,5,2,3,4,5,6,7,{8}1b/8b,{16}3,4,2,,6,5,7,,3,4,1,,6,5,8,,4,5,4,5,3,6,3,6,{4}2b/7b,7b/2b,
{16}1q5[8:1],,,7,,,8,,1p5[8:1],,,3,,,2,,8q4[8:1],,,6,,,7,,8,,71,,62,,,,{16}5q1[8:1],,,3,,,4,,5p1[8:1],,,7,,,6,,4q8[8:1],,,2,,,3qq6[4:1],,4,,5,,7h,,7h,,
{16}8p4[8:1],,,2,8,,1,,8q4[8:1],,,6,8,,7,,1p5[8:1],,,3,1,,2,,1,,46,,28,,,,{16}4p8[8:1],,,6,4,,5,,4q8[8:1],,,2,4,,3,,5p1[8:1],,,7,5,,6pp2[4:1],,5,,4,,3b,,3b,,
{8}3,3,56,{16}4,5,,7,8,7,1,,2,,8,2,1,3,4,2,5,3,6,4,7,5,6b,,4bh[8:8],,{8}5,E7/B7,5,E7/B7,5,E7/B7,5,E7/B7,45,7,45,8,45,7h[8:2]/8h[16:3],,,
{16}1-6[8:1],2,,,12,,3,,4-1[8:1]*<6[8:1],5,,,4,,,,8,7,8,7,4,5,4,5,3,4,3,4,3b,,4bh[1:1],,{8}3,B1/E2,3,B1/E2,3,B1/E2,3,3-1[8:1],4-6[8:1],,,8-2[8:1],7-5[8:1],,,3,
{16}3p7[8:1],,,4,3,,4,,4q8[8:1],,,2,4,,1,,1q5[8:1],,,8,1,,8,,7-5[8:1]*-4[8:1],,18,,7,,,,{8}3<6p8[4:2],7,7,7,{16}7h[16:3],,,,,,7,,87,,87,,1-5[8:1]/6-2[8:1],,87,,16,,,,,,8,,
{16}7p3[8:1],,6,5,7,,4,,2v7[8:1],,3,4,2,,8,,8p5[4:1],,,1,8,,1,,1qq5<1[4:5],,2,,1,,,,{4},4h[8:1],4h[8:1],4h[8:1],3h[8:1],2h[8:1],1h[8:1],1h[8:1],{8}1,1,1,1,{16}1,1,1,1,1,1,1,1,{32}1x,1x,1x,1x,1x,1x,1x,1x,1x,1x,1x,1x,1x,1x,1x,1x,{4}1bx,1b,
{12}5b/1b,51,51,6xb/2xb,62,62,7b<4[8:1]/3b>8[8:1],73,73,7bx/3bx,,,
4b/8b,48,48,1xb/5xb,15,15,2b>5[8:1]/6b<1[8:1],26,26,2bx/6bx,,,
65,65,65,54,54,54,43,43,43,45,45,45,27,27,27,18,18,18,8b-4[16:1]/1b-5[16:1],,,Cf,,,
6/B3,6/B4,6/B5,7/B3,7/B4,7/B5,8/B3,8/B4,8/B5,8b/B6f,,,
3/B6,3/B5,3/B4,2/B6,2/B5,2/B4,1/B6,1/B5,1/B4,1b/B3f,,,
5,5,5,4,4,4,54,53,52,45,46,47,28,28,28,17,17,17,8b,,,,,,
2-5[16:1]/7-4[16:1],27,27,27,,,4v2[16:1]/5v7[16:1],45,45,45,,,28,27,26,25,24,23,2h[4:1],,,7b,,,{16}18,,7,8,,,65,,45,,3,4,,,21,,18,,2,1,,,35,,{8}8v5[8:1]/7v2[8:1],16,87,,
{16}34,,5,4,,,68,,87,,1,8,,,25,,34,,2,3,,,3qq7[4:1]/7,,{8}7,6,5b,5b,
{16}5,,1,1,8,,65,,45,,3,3,4,,21,,18,,2,2,1,,36,,{8}1-4[8:1]/8-5[8:1],27,18,,
{16}45,,6,6,5,,68,,71,,8,8,1,,74,,5,4,5,4,6,3,6,3,{8}8hb[8:2],4b,4b,
