&title=アルストロメリア
&artist=TAG
&first=0
&des=花鸟风月怎么一个写这个的都没有呢
&lv_5=12+
&inote_5=(144){1},
{4}8h[4:3]/2b,2,2,{16}1,8,,7/8h[16:13],
{4},7,7,{16}7,8,,8/1h[16:9],,,,,2,,,,3b-6[8:1],,,,2,,,
1h[16:5],,,7,,7,8,,8,6v3[8:1],,,,2,,,,
{4}1h[4:3]/5b,7,7,{16}8,1,,2/1h[16:13],
{4},2,2,{16}2,1,,1/8h[16:9],,,,,7,,,,6b-3[8:1],,,,7,,,
8h[16:5],,,2,,2,1,,1,3,2,3,4,2,5,1,6,
8q5[16:3],,,5<4[16:7],,,7h[4:3],,,,,,,,,,,,
5,,5,6,,3,4<7[8:1],,,2,,,3,3,1p4[16:3],,,4>5[16:7],,,2h[4:3],,,,,,,,,,,,
4,,4,3,,6,5>2[8:1],7,5,7,5,,8,8,1-5[8:1],,,5<4[16:7],,,6h[4:1],,,,,,6,,7,,
8-4[8:1],,4-7[8:1],4,,3,,2h[16:7],,,,,,,1,1,2h[16:3],,,4,2,,3/5,,7q5[16:3],,,4,,,,2h[16:5],,,4,,4,3,,6,5,6,5,,4/6,,7,,
1/8-4[8:1],,,4>5[16:5],,,3h[16:8],,,,,,,,4,4,2h[4:1],,1,,1,2,,7,8-4[8:1],,1,1,8,,2,,
1-5[8:1],,,5<4[16:5],,,6h[2:1],,,,,,,,5,6,
{8}5-1[8:1],4,{16}3,3,,2,8,1,8,1,7,2,6,3,
5-2[8:1],,4,,5/7,,6,,5-8[8:1],,4,,5/3,,4,4,5>2[8:1],,6,,5/7,,6,,5<8[8:1],,8>3[8:1],,5,,4,4h[16:3],,,5,,6/4,,2,,3<6[8:1]/5,,7,,3/8,,7,,6>3[8:1],,,2,,,1,1,8,,7/8,,6/1,,2/5,,
3/4-7[8:1],,5,,4/2,,3,,4-1[8:1],,5,,4/6,,5,5,4<7[8:1],,3,,4/2,,3,,4>1[8:1],,1<6[8:1],,4,,5,5h[16:3],,,4,,3/5,,7,,6>3[8:1]/4,,2,,6/1,,2,,3<6[8:1],,,7,,,8,8,1,,2/1,,3/8,,7/4,,
6>3[8:1]/5,,,2,,,1,1,8,1,7,2,6,3,5,4,
6b/3b,,7,8,7,1,8,1,7-3[8:1],7,6,,8b,,,,
2/4,,4/5,,7,5,,5,6<1[8:1],,2,2,6,,3,,
7/5,,5/4,,2,4,,4,3,1,2,1,3,8,1,8,
2>5[8:1],,6,,7,7,,8,8h[8:1],,6,,5/7,,4/6,,
5p4[16:4]/3,,,,1,,1h[4:1],,,,4,,3/5,,6/4,,
7/5,,5/4,,2,4,,4,3>8[8:1],,7,7,3,,6,,
2/4,,4/5,,7,5,,5,6,8,7,8,6,1,8,1,
5,2,5,2,4<7[8:1],4,,1,1,,2,,3/1,,4,4,
6b,5,6,3b,4,3,7b,5,6b,4,5,3,4,2,8,8,
1p8[8:3],,,,,,,,,,,,,2,,1>6[2:1]/3h[16:14],,,,,,,,,,,,,,
7,,6p8[2:1]/4,,,,,,,,,2,,,,,,,
6h[16:3],,,7,,2,1,,1,3,8,4,7,5,,8,,
7h[8:3]/8,,,6,,,5,,4/3h[8:3],,,2,,,1,,7h[8:3]/8,,,5,,,4,,3h[8:3]/1,,,8,,,7,,
6h[8:3]/1,,,5,,,4,,3>8[8:1]/8,,7,,6,,5,,4/2h[16:3],,,8,1,,6,,7h[16:3]/5,,,1,8,,3,,
2<7[8:1]/4,,5,,6,,6,,
7>2[8:1]/5,,4,,3,3,,4b,{16},,6,5,6,2,4,2,
{12}8,5,6,1,4,3,
{8}8bqq5[2:1],,4,,,,4h[4:1],,6pp1[2:1],,3,,,,3h[4:1],,
2qq6[2:1],,4,,,,4h[4:1],,8q1[2:1],,2,2,,,3,4,
{8}5/6,8/7,{16}2,1,,1,3,5,5,4,6h[8:1],,5,,
{8}4/7,1/2,{16}7,8,,8,6,4,4,5,3,4,2,,
3/5,,8/7,,3,1,,1,2,8,3,7,2,6,1,5,
{16}8b,1,2,3/8b,7,6,{32}8/5,1,2,3,4bpp6[8:1]*qq2[8:1],,,,,,{16},,,
,,7,8,7,8,6,5,6,3,4,3,7,5,6,,8/7,,
2,1,2,1,3,4,3,6,5,6,2,4,3,,2/1,,
7,8,7,8,6,5,7,2,4,3,7,5,6-4[8:1],,8/7,,1V37[4:1],,,,5,,5h[4:1],,,,7,,8/6,,7/1,,
2<7[16:1],1,3,2b,,,5,5,6,2,4,3,8,,1/7,,
6-1[16:1],5,7,6b,,,8,8,2,4,1,7,5,,4/6,,
7,5,7,2,4,3,8,6,7,5,6,4,5b,3,4b,2,
{16}8b,7,6,5/2b,4,3,2/7b,1,8h[8:3]/4b,,,,{48}7,6,5,4,3,2,1,,,,,,
{16}6/8,,2,1,3,8,4,7,5,6,4,5,3,4h[8:1],,2b,4,1,5,8,6,1,7,2,6,3,5,4,6,5h[8:1],,7b,
4,8,3,7,2,6,1,5,8b,8,6,1,1,3,8,5b,1,6,2,7,3,8,4,1,5,5,7,4,8,8,3,1,
{16}3/1,,7,8,6,1,5,2,4,3,5,4,6,5h[8:1],,7b,5,8,4,1,3,8,2,7,3,6,4,5,3,4h[8:1],,2b,
5,1,6,2,7,3,8,4,1b,1,3,8,8,6,1,4b,8,3,7,2,6,1,5,8,6,5,7,4,8,3,1>4[32:1],2,{48}8,7,6,5b,
