&title=Believe the Rainbow[DX]
&artist=Shoichiro Hirata feat.Sana
&first=0
&des=テキサス
&wholebpm=133
&shortid=835
&genre=maimai
&cabinet=SD
&version=maimai FiNALE
&clock_count=4
&des_2=-
&des_3=-
&des_4=某T氏
&des_5=テキサス
&des_6=你先别急
&lv_2=4
&lv_3=7+
&lv_4=10
&lv_5=13
&lv_6=还没写多少先别打
&inote_2=(133){1},
{1},
{1},
{1}C,
{1},
{2}B1,B1,
{1}B2,
{1}1-5[4:3],
{1},
{2}B8,B8,
{1}B7,
{1}8-4[4:3],
{1},
{2}3,3,
{1}3,
{2}4,4,
{1}4/5,
{2}5,5,
{1}5,
{1}6-2[4:3],
{1},
{2}E1,B1,
{1}E2/B2,
{2}E1,B8,
{1}B7/E8,
{2}B6,B5,
{1}E5,
{1}5h[2:1]/6h[2:1],
{1}3h[2:1]/4h[2:1],
{2}5,5,
{1}4/6,
{2}4,4,
{1}3/5,
{2}5,5,
{2}6,6,
{2}7,7,
{1}1b/8b,
{4}1,1,1,,
{4}1,1,1,,
{4}2,2,2,,
{4}2,2,2,,
{2}3/4,3/4,
{2}5/6,5/6,
{4}B2,B7,C1,,
{1}4h[2:1]/5h[2:1],
{4}5,5,5,,
{4}5,5,5,,
{4}6,6,6,,
{4}6,6,6,,
{2}7/8,7/8,
{2}1/2,1/2,
{2}1/8,1/8,
{1}2b/7b,
{1}1-5[4:3],
{1},
{1}8-4[4:3],
{1},
{1}1h[2:1]/2h[2:1],
{1}7h[2:1]/8h[2:1],
{1}1-4[4:3],
{1},
{1},
{1}C1h[1:2],
{1},
{1},
{1},
{2}4,4,
{2}5,5,
{1}4h[8:7]/5h[8:7],
{1},
{4}E7,B6,B5,,
{4}E3,B3,E5/B5,,
{4}E7,B7,B8,,
{4}E3,B2,E1/B1,,
{2}E6/E4,E4/E6,
{2}E7/E3,E7/E3,
{2}E2/E8,E2/E8,
{1}1b/8b,
{1}1-4[4:5]/8-5[4:5],
{1},
{1},
{1},
E
&inote_3=(133){1},
{4}E2,B2,B3,E4,
{4}E8,B7,B6,E6,
{4}3,3/4,4/5,5q4[2:1]/6<3[2:1],
{4},,,1b/8b,
{4}6,B3,6,4/7,
{4}8,1>4[4:1],,,
{4}3,B6,3,2/5,
{4}1,8<5[4:1],,,
{4}7,8,7,1/6,
{4}2,3>8[4:1],,,
{4}2,1,2,3/8,
{4}7,6<1[4:1],,,
{4}3h[4:3],4,,4,
{4}5,5,4,4,
{4}6h[4:3],5,,5,
{4}4,5,C,,
{4}2h[4:3],4,,4,
{4}3,4,5,6,
{4}7h[4:3],5,,5,
{1}6<3[2:1],
{1}1<6[2:1]*>4[2:1],
{4}5/6,4/5,3h[4:1]/4,1,
{1}8<5[2:1]*>3[2:1],
{4}3/4,4/5,5/6h[4:1],8,
{4}3,4,3,2/5,
{4}6,5,6,4/7,
{4}3,2/4,1/5,,
{4}6,5/7,4/8,,
{4}3h[2:1],,5,C,
{4}6h[2:1],,4,C,
{4}3h[2:1],,4,C,
{4}6h[2:1],,5,C,
{4}3,2,1,8,
{4}7,6,4/5,2/7,
{8}1h[4:1]/8h[4:1],,,2h[4:1]/7h[4:1],,,3h[4:1]/6h[4:1],,
{8},4h[4:1]/5h[4:1],,,4/5,,2b/7b,,
{4}1,2,3,2/4,
{4}8,7,6,5/7,
{4}4/6,3/5,Chf[4:1],,
{4}3/5,4/6,Chf[4:1],,
{4}4/5,2/4-8[4:1],,,
{4}4/5,5-1[4:1]/7,,,
{4}2/8,3/7,4/6,3/5,
{4}2/6,1/7,2/8,1b,
{4}8,7,6,5/7,
{4}1,2,3,2/4,
{4}3/5,4/6,7/8,1/5,
{4}4/6,3/5,1/2,4/8,
{4}3/5,5-1[4:1]/7,,,
{4}4/6,2/4-8[4:1],,,
{4}3/5,5-1[4:1]/7,,,
{4}2>5[4:1]/8<5[4:1],,,C1f,
{4}6,5,4/7,,
{4}3,4,2/5,,
{4}B6,B7,B8,B1,
{4}B2,B3,1/8,,
{4}3,4,2/5,,
{4}6,5,4/7,,
{4}B2,B1,B8,B7,
{1}1pp4[4:5]/8qq5[4:5],
{1},
{1}B7,
{1},
{1}B2,
{1},
{2}3h[2:1],4h[2:1],
{2}5h[2:1],6h[2:1],
{4}3,4,5<4[4:3],,
{4},,,1b/8b,
{4}7,6/8,5,4/6,
{4}2,1/3,4,3/5,
{4}4/6,3/5,1/2,4/8,
{4}3/5,4/6,7/8,1/5,
{4}4/6,2/4-8[4:1],,,
{4}3/5,5-1[4:1]/7,,,
{4}4/6,2/4-8[4:1],,,
{4}C1h[8:3],,,3bV14[4:7]/5bV74[4:7],
{1},
{1},
{1},
{1},
E
&inote_4=(133){1},
{1}1-4[4:5],
{1}E7,
{1}8-5[4:5],
{4}E3,,,2b/7b,
{4}1,2/8,8,1/7,
{4}2<7[4:1]b,,,4/6,
{4}4,3/5,5,4/6,
{8}7<4[4:1],,,,,B1,B2,,
{4}8,1/7,1,2/8,
{4}7>2[4:1]b,,,3/5,
{4}5,4/6,4,3/5,
{8}2>5[4:1],,,,,7b,7b,,
{4}6h[4:5],E3,,B3,
{4},B4,5,4/6,
{4}3h[4:5],E7,,B6,
{4},B5,4,3/5,
{4}6h[4:5],B2,,B4,
{4},5pp7[4:1]*qq3[4:1],,,
{1}4q5[2:1],
{1}8q1[2:1]b,
{8}3h[16:3]/4h[16:3],,,2/5,,,5,,
{8},,5,,B3,B6,C1,,
{8}5h[16:3]/6h[16:3],,,4/7,,,4,,
{8},,4,,B6,B3,C1,,
{4}3,3/4,6,4/6,
{4}3,2/5,7,4/8,
{4}1>4[4:1]/2<7[4:1],,,5/6,
{4}7>2[4:1]/8<5[4:1],,,3/4,
{8}3h[2:1],,,4,4,,2/8,,
{8}6h[2:1],,,5,5,,1/7,,
{8}2h[2:1],,,4,4,,3/8,,
{8}7h[2:1],,,5,5,,1/6,,
{4}3h[4:3],5,6,7,
{4}8h[4:3],4,3,2,
{8}1h[4:1]/7h[4:1],,,3h[4:1]/8h[4:1],,,1h[4:1]/6h[4:1],,
{8},2h[4:1]/8h[4:1],,,1,8,2b/7b,,
{8}3,4,3/5,,6,5,4/6,,
{8}4,5,3,6,2/7,,1/8,,
{8}6,5,4/6,,3,4,3/5,,
{4}1/2,3/4,5/6,7/8,
{4}1>4[4:1]/5p8[4:1],,,Cf,
{4}4q1[4:1]/8<5[4:1],,,Cf,
{8}3h[8:1]/5h[8:1],,4h[8:1]/6h[8:1],,5,5pp5[8:5]*qq5[8:5],,,
{4},,,2b/7b,
{8}6,5,4/7,,3,4,2/5,,
{8}8,1,7,2,3/6,,4/5,,
{8}3,4,2/5,,6,5,4/7,,
{4}4w8[4:1],,,2/6,
{4}2>5[4:1]/6p1[4:1],,,3/7,
{4}3q8[4:1]/7<4[4:1],,,1/5,
{1}1pp4[2:1]b/5pp8[2:1],
{1}2b/7b,
{4}2h[4:1],1,7h[4:1],8,
{8}2h[4:1],,1,,B8,B7,E7,,
{4}6,5/7,3,2/4,
{1}3q5[2:1],
{16}7h[16:3],,,8,,,1h[8:3]/6,,,,8,,8,,,,
{16}2h[16:3],,,1,,,3/8h[8:3],,,,1,,1,,,,
{8}3h[16:3]/8h[16:3],,,2h[16:3]/5h[16:3],,,4/6<3[2:3],,
{1},
{1},
{1}1>5[2:3],
{1},
{1}1>6[2:3],
{1},
{4}4h[4:3],3x,3x,3x,
{4}5h[4:3],6x,6x,6x,
{8}4/6,,3/5,,3/6,3qq5[8:5]/6pp4[8:5],,,
{4},,,2b/7b,
{8}6,5,4/7,,3,4,2/5,,
{4}2<7[4:1]/4pp6[4:1],,,1/8,
{8}3,4,2/5,,6,5,4/7,,
{4}6>3[4:1]/8pp2[4:1],,,1/8,
{8}2/6,2-5[16:3]/6-1[16:3],,,,,4/8,,
{8}3/7,3-8[16:3]/7-4[16:3],,,,,1/5,,
{8}2/6,2pp5[16:7]b/6pp1[16:7],,,,,,,
{4}4/5,3/6,2/7,1/8,
{1}1b>4[4:5]b/8b<5[4:5]b,
{1},
{1},
{1},
E
&inote_5=(133){1},
{4}E3,B4,B8/E8/B7,,
C1h[2:1],,,,
{4}E7,B5,B1/E2/B2,,
5b-1[2:1]b,,,,
{4}2<7[4:1],7v2[4:1],2<7[4:1],7<6[8:1]b*<5[4:1]*<4[8:3]b*<3[2:1]*<2[8:5]b*v2[8:5],
{4},,,C,
{4}1q5[4:1],7q3[4:1],,,4v1[4:1]/6v3[4:1],,,B7,
{4}6>3[4:1],3v6[4:1],6>3[4:1],3>2[8:1]b*>1[4:1]*>8[8:3]b*>7[2:1]*>6[8:5]b*v6[8:5],
{4},,,C,
{4}5q1[4:1],3q7[4:1],,,8v5[4:1]/2v7[4:1],,,B3,
{8}8<5[6:1],,,3>8[6:1],,,6>3[6:1],,,1<6[6:1],,,4-2[8:1]b*V28[4:1],,,,
{8}7<4[6:1],,,2<7[6:1],,,5>2[6:1],,,8<5[6:1],,,3z7[4:1]*z7[4:1],,,,
{8}6>3[6:1],,,1<6[6:1],,,4>1[6:1],,,7<4[6:1],,,2-8[8:1]*V86[4:1]b,,2>5[14:3]*>7[14:5]b*>1[2:1],,,,,,,,,,
{1}7<4[14:3]b*<2[14:5]*<8[2:1]b,
{16}7qq8[8:3],,,B2,,,E4,,,,,,,,,,
{2}3pp8[4:1],6qq1[4:1],
{16}3qq4[8:3],,,B6,,,E8,,,,,,,,,,
{2}8<5[8:1]/4>1[8:1],8q4[8:1]/4q8[8:1],
{4}5-8[4:1],8-3[4:1],3-6[4:1],6-1[4:1],
{4}1-4[4:1],4-7[4:1],7-2[4:1],2pp6[2:1]*pp6[2:1],
{1},
{1}3pp8[2:1]/5qq8[2:1],
{2}8-3[8:3],2-5[8:3],4-7[8:3],6-1[8:1]b,
{2}4-7[8:3],6-1[8:3],8-3[8:3],2-5[8:1]b,
{2}8<3[2:1],3q8[2:1],
{4}8-2[4:1],2-4[4:1],4-6[4:1],6<7[8:1]*<8[4:1]*<1[8:3]b*<2[2:1]*<3[8:5]*<4[4:3]b*<5[8:7]*<6[1:1],
{4},,,1-4[8:1]b*-3<4[8:1],
{4}1-6[8:1]*-7<6[8:1]b,1>1[8:3]b,,,
{8}7-4[8:1]*-4[8:1],4-7[8:1],7-1[8:1]*-1[8:1],1<2[4:1],,,,,
{8}1-5[8:1],7-5[8:1]*-5[8:1],,,2-4[8:1],8-4[8:1]b,,,
{8}2-5[8:1]*-5[8:1],5-2[8:1],2-8[8:1]*-8[8:1],8>7[4:1],,,,,
{8}8-4[8:1],2-4[8:1]*-4[8:1],,,1w5[8:1],,,,
{4}1>1[2:1],5s1[4:1],,,
{1}5pp4<4[8:5]/3qq4>4[8:5],
{8}7-5[8:1],7-1[8:1],,,2-4[8:1],2<1[8:1]*<8[4:1]b*<7[8:3]*<6[2:1]b*<5[8:5],,,
{2},4-8[8:1]*-8[8:1],
{8}2-5[8:1]*-5[8:1],5-2[8:1],2-8[8:1]*-8[8:1],8>7[4:1],,,,,
{2}6qq4[8:1]/3pp5[8:1],7v1[8:1]/2v8[8:1],
{8}7-4[8:1]*-4[8:1],4-7[8:1],7-1[8:1]*-1[8:1],1<2[4:1],,,,,
{4}1>4[8:1]/5<8[8:1],1p5[8:1]/5p1[8:1],1>4[8:1]/5<8[8:1],,
{4}8pp6[2:1],,B4,E3,
{4}1qq3[2:1],,B5,E7,
{8}1-3[8:1],8-6[8:1]*-6[8:1],1-5[8:1],8-4[8:1]b,1b-3[8:1]*-3[8:1],8b-6[8:1],1b>5[7:2]*>6[14:5]b*>7[7:3]*>8[2:1]b,,
{4},,4-8[6:1],8-6[8:1]*-2[8:1],
{4},4-2[6:1],6-4[6:1]*-4[6:1],8-6[6:1],
{4}2-8[6:1]*-8[6:1],4-2[6:1],6-4[6:1]*-4[6:1],8-6[6:1],
{4}3-8[6:1]*-8[6:1],6-3[6:1]b,1-6[6:1],4-1[6:1]*-1[6:1],
{4}7-4[6:1],2-7[6:1]b,5-2[6:1],8q1[3:1]*q1[3:1],
{4},3-1[8:1]*-1[8:1],7-5[8:1]b,1-7[8:1]*-7[8:1],
{4}5-3[8:1]b,3-1[8:1]*-1[8:1],7-5[8:1]b,1-7[8:1]*-7[8:1],
{4}5s1[4:1],,3-7[4:1],,
{8}5-1[4:5]*-1[4:5],,,E2,,,E3,,,E4,,,
{2},
{1}7qq5qq3qq1qq7[2:3],,
{1}1-4>3-6>5-8<7-2<1[2:3],,
{1}7p6[2:1]/2q3[2:1],
{1}8q2[2:1]b/4q6[2:1],
{8}4q1>4[8:3]/1p4>1[8:3],,,,,,,6b-2[2:1]*-2[2:1],
{1},
{8}1-3[8:1],3-5[8:1],5-7[8:1],7<1[4:1],,,,,8-3[8:1]b*-2>3[8:1],8-5[8:1]*-6>5[8:1]b,,,1w5[8:1],,,,
{8}8-6[8:1],6-4[8:1],4-2[8:1],2>8[4:1],,,,,1-6[8:1]b*-7<6[8:1],1-4[8:1]*-3<4[8:1]b,,,8w4[8:1]*w4[8:1],,,,
{4}1q4[2:1]*p5[8:3],,,,4>8[4:1],8-4[8:1]*<8[2:1],,,
{4}3<6[4:1],6qq3[8:3],,,
{2}4bz8[2:1]/5bs1[2:1],,
{1}5<6[4:1]b*<7[2:1]*<8[4:3]b*<1[1:1]*<2[4:5]b*<3[2:3]*<4[4:7]b*<5[1:2],
E
&inote_6=(133)
{1},
{8}4,,6,6,2,,8,,
{1}C1h[4:3],
{8}8,,2,2,6,,4,,
{4}C1f,,,1b/8b,
{16}7,,1,,{32}E8,B7,B6,B5,E5,,,,{16}2,,6,,4h[8:1],,6h[4:1],,
{8}1,4h[4:1],1,6h[4:1],1,4,1b,,
{8}8/4,2,{16}7,6,5,,{8}1h[4:1],4h[4:1],,,
{16}2/5,,4,3,2/6,,1h[8:3]/7,,,,8,,{32}E8,E7,E6,E5,E4,E3,E2,E1,
{8}E8,1,{32}E2,B2,B3,B4,E5,,,,{16}7,,3,,5h[8:1],,3h[4:1],,
{8}8,5h[4:1],8,3h[4:1],8,5,8b,,
{8}1/5,7,{16}2,3,4,,{8}8h[4:1],5h[4:1],,,
{16}7/4,,5,6,7/3,,8h[8:3]/2,,,,1,,{32}E2,E3,E4,E5,E6,E7,E8,E1,
{6}5h[6:1],1,5/1h[6:1],{8}7h[8:1],3h[8:1],5h[8:1],1,
{8},7h[4:1],,8,1/2,3/4,5/6,7/8,
{6}4h[6:1],8,4/8h[6:1],{8}2h[8:1],6h[8:1],4h[8:1],8,
{8},2h[4:1],,1,8/7,6/5,{32}A1,D2,A2,D3,A7,D7,A6,D6,
{6}A5,1,5/1h[6:1],{8}7h[8:1],3h[8:1],5h[8:1],1,
{8},7h[4:1],,8,1/2,3/4,5/6,7/8,
