&title=Arghena
&artist=Feryquitous vs Laur
&first=0.57
&lv_5=14+
&des=The Musical Ghost
&inote_5=(185){4}Ch[1:1],,,,1>8[4:30],,,,E2,,,,E3,,,,E4,,,,
E5,,,,E6,,,,E7,,,,E8,,,,
{8}1x,2,,2,3,,3,4,,4,5-1[4:1],,5,,,,
8x,7,,7,6,,6,5,,5,4-8[4:1],,4,,,,
1x,3,,3,5,,5,7,,7,1-5[4:1],,1,,,,
8x,6,,6,4,,4,2,,2,8,,
{16}1x,8,2,7,3,6,4,5,
{8}4bh[8:2],5,6,7h[8:2],8,1,2h[8:2],3,4,5h[8:2],6,7,8h[8:3],7,7,,
6xh[8:2],5,4,3h[8:2],2,1,8h[8:2],7,6,5h[8:2],4,3,2h[8:1],3,3h[8:1],,
4xh[8:2],6,7,1h[8:2],3,4,6h[8:2],8,1,3h[8:2],5,6,8h[8:3],1,1h[8:1],,
5xh[8:2],B4,3h[8:2],B6,7h[8:2],B2,1h[8:2],B5,
4xh[8:2],B1,2h[8:2],B7,6h[8:2],B1,8h[8:1],C,
{48}1bx,8/2,7/3,6/4,5,,,,,,,,
{8}8x/2x,,
1>4[8:1],8,7,6<1[8:1],5,4,3<6[8:1],2,1,8,7x,,
4>1[8:1],5,6,7<4[8:1],8,1,2<7[8:1],3,4,5>2[8:1],6,7,8<5[8:1],1,2x,,
2>5[8:1],E1,B8,7>2[8:1],E6,B5,4<7[8:1],E3,B2,1>4[8:1],E8,B7,6<1[8:1],E5,B4,,
{24}5x,,,,6h[16:1]/4h[16:1],,,,6/4,,,,
{16}3h[16:1]/5h[16:1],,3/5,,3x-8-4-1[8:3]/5x-8-4-7b[8:3],,,,,,,,,,,,
{32}8b/4b,7,6,5,4,3,2,1,8b,,,,,,,,
{16}8x,7,6/1x,2,3/7x,6,5/2x,3,4/8x,7,6/1x,2,3/7b-3[4:11],,,,
{4},,,,,,,,,,,,
{8}1h[4:3],E8,E7,E6,E5,E4,8h[4:3],E2,E3,E4,E5,E6,3h[4:2],B8,C,B4,
5h[4:3],D4,D3,D2,D1,D8,4h[4:3],D6,D7,D8,D1,D2,7h[4:2],D6,C,D2,
1x,,3h[8:1]/4h[8:1],,,5,6/4,,8,,6h[8:1]/5h[8:1],,,4,3/5,{16}2,1,{8}
2x,,3h[8:1]/5h[8:1],,,5,5/6,,7,,6h[8:1]/4h[8:1],,,4,3/4,,
5x/6x,6,6/7,7,7/8,8,8/1,1,1/2,2,2/3,3,3/4,4,4/5,5,
{16}6x,5,7,4,8,3,1,2,4x,3,5,2,6,1,7,8,7b-4>2-5<7b[4:2],,,,,,,,,,,,Cf/B8/B1/E1,,,,
1x-5[16:1]/7x-3[16:1],,,,,,8x-4[16:1]/2x-6[16:1],,,,,,
{32}1b/7b,2,3,4,5,6,7,8,{24}D1,D2,D3,D4,D5,D6,{16}D7,D8,E1,E3,{8}E5,E7,Ch[8:1],,
{48}1b-5-3[16:3]/2b-6-8[16:3],8/3,7/4,6/5,,,,,,,,,
{8}1/2,,,18,18,
{16}2h[16:2]/3h[16:2],,,3h[16:2]/4h[16:2],,,4h[16:2]/5h[16:2],,,5h[16:2]/6h[16:2],,,
7x/8x,7x/8x,
{32}6x,5,4,3,2,1,8,7,
{16}6-3[8:1],,2-7-3>3b[16:14],,6b,,2b,,,,,,7hx[4:3],,,,,,,,,,,,
3x,4,2,5,1,6,7,
{32}8b,B8,Cf,B4,,,,,,,
{16}1-3-5[16:1]*-7-5[16:1],,1b,,,,,,8-6-4[16:1]*-2-4[16:1],,8b,,,,,,
8-6-4-2-8b[4:1]/1-3-5-7-1b[4:1],,8b/1b,,,,,,A8/D1f/A1,,,,
{16}8x-4[16:1]/2x-6[16:1],,,,,,1x-5[16:1]/7x-3[16:1],,,,,,
{32}8b/2b,7,6,5,4,3,2,1,{24}D1,D8,D7,D6,D5,D4,{16}D3,D2,E1,E7,{8}E5,E3,Ch[8:1],,
{48}8b-4-6[16:3]/7b-3-1[16:3],1/6,2/5,3/4,,,,,,,,,
{8}8/7,,,7,2,
{16}1x/8x,,,1/8,,,1/8,,1/8,,{24}1/8,,1/8,,1/8,,{32}1x/8x,2/7,3/6,4/5,,,,,
{8}1-5[8:1],7-3-1-4-8-5-7b[16:18],1b,7b,,,3hx[4:3],,,,,,,,,,
{16}2/5,,3,4,3,,7,8,7,8,7,,2,1,2,,3/8,,6,5,6,,2,1,2,1,2,,7,8,7,,
{8}1x-5[8:1],8-4[8:1],1,8,2-6[8:1],7-3[8:1],2,7,,
{16}1/8,,2x,3,4,5,6/2,1,8,7,6/1,2,3,4,
{8}7x-3[8:1],8-4[8:1],7,8,6-2[8:1],1-5[8:1],6,1,,
{16}1/2,,8x,7,6,5,4/8,1,2,3,4/1,8,7,6,
{8}2x-6[8:1],1-5[8:1],2,1,3-7[8:1],8-4[8:1],3,8,
1h[8:7],,,7,6,5,4,3,
1b-5[16:1]/3b-6b[16:1],,,,
4b-8[16:1]/7b^4b[16:1],,,,
3b-6[16:1]/1b^4b[16:1],,,,
8b^5[16:1]/5b-1b[16:1],,,,
{24}2bx,3,4,2x,3,4,2x,3,4,2x,3,4,1x,2,3,1x,2,3,1x,2,3,1x,2,3,
{8}1bx-5[8:4],,,,,,,,
{24}8bx,7,6,8x,7,6,8x,7,6,8x,7,6,1x,8,7,1x,8,7,1x,8,7,1x,8,7,
{8}1bxw5[8:4],,,,,,,,
{16}6x-4-8-2[4:1]/5x,,,6/4,6/4,,,,1x,2,3,4,8,7,6,5,
3x-5-1-7[4:1]/4x,,,3/5,3/5,,,,5x,6,7,8,4x,5,6,7,
8x,1,2,3,1x,2,3,4,1x,8,7,6,8x,7,6,5,
1x,7,2,6,4,8,3,5,1h,8h,3h,6h,2h,7h,4h,
5bw1b[6:20],
{1},,,
{8},,,,,,6-3b[8:1]/2-7b[8:1],,6b-8-3[8:3]/2b-4-7[8:3],,,,,,,
{32}8b/4b,7/3,6/2,5/1,,,,,,,,,{32}1b/5b,2/6,3/7,4/8,,,,,
{32}5x,6,7,8,1,2,3,4,5,6,7,8,1b/Cf,,
{16},,,4/6,,7/2,,2,2,4,,8/1,,7,7,5,,3/6,,7/8,,8/1,,1/2,,
4,3,5,2,6,1,7b^6v4[16:2],,,,,,B2/E3f/B3,,,,7/6,,6/5,,5/4,,4/3b^2v8[16:2],,,,,,B7/E7f/B6,,,,
{8}1x/8x,1-5[8:1]/8-4[8:1],2/7,1b/8b,,1/8,
{16}2/7,,6,5,6,5,6,,2,1,2,,3/5,,7,8,7,,8/2,,
{12}1b/5x,2x/6b,3b/7x,4b/8x,3x/7b,2b/6x,
{16}1bx/5bx,,,,2x/8x,,6,5,6,7,6,,2,1,2,,
7x,8,7,6,7,,4,5,4,3,4,,2,1,2,,
6x,5,6,7,6,,1,8,1,2,1,,5,4,5,,
7x,6,7,8,7,,4,5,4,3,4,,8,1,8,,
3x,4,3,5,3,,7,8,7,1,7,,2,3,2,,
1x,8,1,8,1x,2,8x,7,2x,3,7x,6,3x,4,6bxh[8:1],,
{32}4x,5,6,7,8,1,2,3,4x,5,6,7,8,1,2,3,4x,5,6,7,8,1,2,3,4x,5,6,7,8,1,2,3,
4x/Cf,5,6,7,8,1,2,3,4x,5,6,7,8,1,2,3,4x/Cf,5,6,7,8,1,2,3,4x,,,,,,,,
{16}8x-4[16:1]/2x-6[16:1],,,,,,1x-5[16:1]/7x-3[16:1],,,,,,
{32}8b/2b,7,6,5,4,3,2,1,{24}D1,D8,D7,D6,D5,D4,{16}D3,D2,E1,E7,{8}E5,E3,Ch[8:1],,
{48}8b-4-6[16:3]/7b-3-1[16:3],1/6,2/5,3/4,,,,,,,,,
{8}8/7,,,7,2,
{16}1x/8x,,,1/8,,1/8,,1/8,,{24}1/8,,1/8,,1/8,,{32}1x/8x,2/7,3/6,4/5,,,,,,,
{8}1-5[8:1],7-3>3>3b[18:25],1b,7b,,,3hx[4:4],,,,,,,,,,
{16}7x/1x,,,,7-1-3[8:1]/2,,7/3,,,7/4,,,4-2-8[8:1]/5,,4x/6x,,,4/7,,,
7/1,,7h[8:1]/1,,8x,1,7x,6,8x,1,7x,6,
5h[8:1]/2h[8:1],,,52,,6,5,4h[8:1]/7h[8:1],,,47,,,
5/4h[16:3],6,7,
8b,1,2,3,1b/4,8,7,6,
{32}5/1b,8,7,6,1b,2,3,4,8bh,7h,6h,5h,2bh,3h,4h,5h,
{8}1b-5[4:6],,,,,,,,,,,,,,,,
1>1[4:7]*<1[4:7],
E
