&title= 花結び
&artist= Leo/need × 巡音ルカ
&first=0.1
&des=fuwan
&des_5=
&lv_5=13+
&inote_5=(180){4},,,,3,
{8}5,1-7-2q6q4[8:9],,,,,,,,,{4}7,
5hx[4:7],
E5,E6,E7,E8,
E1,E2,E3,4/6,
5h[4:1],{8}4,5,{4}2x-4x[8:1],{8}5,6,
{4}7x<4x[16:3],{8}3,3,,2h[4:1],,5,
3,4,5h[4:1],4,4,6,3,5-8[8:1]*-2[8:1],
,,,3<6[8:1],{4}7,8,
1/4h[4:1],1xqq5x[8:5],{8},,,,,,,3>8[16:3],
4,4,5,6,
{4}6-1[8:1],2-5[8:1],8,{8}7qq7[8:3],4,
,B3,,E2/B1,,,{4}3/6h[2:1]
,
{16}E4,E5,E6,E7,E8,E1,{8}E2,5,{16}4,4,{8}6,5,
4/6,2,7/3,3-8[8:1]/7-3[8:1],,3x/7x,,1,
7/8,6,5/3,2,4,5,6,7b-5[8:1]*-4[8:1],
,,,3,5,4,6,3,
{16}7-4[8:1],,,8,{4}7,{8}6/2,6xh[8:1]/2xh[8:1],,5xh[8:1]/3xh[8:1],
,,,6,4,5,3,6,
{4}8/1>4[8:1],1<6[8:1],1-5[8:1],{8}1b,7qq1b[8:5]*qq2[8:5],
,,,,,,,,3qq5[8:7],
,,,,,,7V16[2:1],
,,,3-5-2[2:1],,,,,{1}7>1-5[2:1],
{8}1h[8:3],,,3,{16}3h[16:5],,,,,5,,5h[8:3],
,,,,,7,,7h[16:5],,,,,{4}8>3p4[4:3],
7,6xh[8:3],,,{1}8qq5[4:3]/3qq5b[4:3],
{8},,3,5,,6h[8:1]/4h[8:1],,,5,
4,{4}3/7-4[8:1],2-5[8:1],8b-4b[8:1],
3,2/5,{8}4h[16:3]/1h[16:3],,,5/2,
6,4,{4}6x-1[8:1],2x-5[8:1],7bx-4b[8:1],
{8}3h[4:1],,,2,3xh[16:3]/5xh[16:3],,,4/6,
{4}7x-4x[8:1],2x-5x[8:1],{2}8bxw4b[8:1],
{4}6h[4:1],4,5/3h[4:1],{8}5,6,
{16}1x,2,3,4,5,6,7,8,{32}1,2,3,4,5,6,7,8,{4}5b/1b,
2/8p4[8:1],8/2q6[8:1],2/1-5[8:1],4b/1bV35b[4:1],
5x-7-1[4:1],8,6v1[8:1],6b/2-5[8:1],
2b/8-4[8:1],7bx/8bx,6h[4:1],{8}5,4,
3>5[16:5],5,{4}3bx/4bx,{8},,7,4,
5,3/4,{4}1-4[8:1],1/6-1[8:1],{16}6bx/5bx,4,3,2,
{8}7,3,{16}6,6,{8}4,5,{16}2,6,{8}6,4,
6,1,{4}1/7v4[8:1],{8}8x/7x,2,3,4,
{4}5<7[8:1],{8}4,3p5[4:1],,,,,{4}8-4[8:1],
8bx/2b-6[8:1],7b-3[8:1],5-1[8:1],
5b-3-1[4:1],1x-7-5b[4:1],3x,1bp4b-2b-5b[8:5],
,7,8h[4:1],3h[4:1],
6,5<8[8:1]/4>1[8:1],{2}5b/4b,
{8}7/2,{16}6,4,{8}4,5,3,{16}5,5,{8}2,6,
{16}3,4,3,4,2,5,2,5,1,6,1,6,8,7,8,7,
{4}8x>3x[16:3],6,{8}7>2[16:3]*-4[16:3],4,{4}7x,
{8},3/5,4,5/7,6,2/4,7,2/4,
8,4/2,{4}8V64[4:1],8x/1x-3-5[4:1],1bx,
{8}7pp6[2:1],,,5,{4}4,3qq5[2:1],
5,6,{8}7,8,,1p8<1[8:13]/8q1b>8b[8:13],
,,,,,,,,,,,,,,,,6,
{16}3,4,{8}2,4,5,4/6-4[8:1],3,3,
,1-3[8:1],4,4,6,{16}5,7,{8}4,6,
5,3,4,2,4/5,3,2qq4[8:5],5xh[8:7],
,,,,,,,,6
,
{16}4,5,{8}5,2>4[8:1],,2/1,8,8,
{4}7<5[8:1],{8}4/7,3,2,1p4[4:1],4,5,
6h[4:1],,,4,6,3,{4}5xh[1:1],
B4/E4,B3/E3,B2/E2,C/B8
,
1qq3[2:1],{8}4,5,5,6,6,7,
7,6/4,5,4/2,3,6,4,4h[8:1],
3,3h[8:1],2,2h[8:1],{4}1<5[4:1],3,
3,{8}4,2,{4}7/1-6[8:1],1x/2x,
3h[4:1],5,{8}4-1[8:1],5,{4}4x/6x,
5h[4:1],{8}4,3,{4}6h[4:1],{8}2,4,
{4}5<2[2:1],4,4,4>7[2:1],
5,5,5,4/3,
{16}2,,,3x/4x,,,{8}5,{16}7x/8x,,,1,,,{8}3/7,
{4}2v5>1[8:3]/8v5<1[8:3],2x/8x,,7h[4:1],
5h[4:1],4h[4:1],2h[4:1],4,
{8}6/4,{32}3,,,E6,B5,B4,{16}E4,,,{4}2h[8:1]/1h[8:1],8xh[4:1]/7xh[8:1],
,5v7<6v8[4:3],3,2,
{2}1h[4:1],{4}6<1[4:1],1>4[4:1],
5,{8}1-4[8:1],5-8[8:1],,,2pp4[16:3],2qq8b[16:3],
,,,3,4,{16}6,5,6,5,7,4,
{8}7qq1[2:1],3,{4}2,{8},,,2,
2h[4:1],,,5,{4}5h[4:1],3,
{8}4,6,{4}3q4[2:1],{8},,,6,
{4}7h[4:1],{8}5,4,{4}3V57[4:1],2/3,
{8}2,3,6/5,5,5/4,4,4/3,3,
3/2,2,2/6,7/3,5<8[8:1]/4>1[8:1],6/3,{4}5x/4x,
{16}2,7,1,8,2,7,1,8,2,7,1,8,2,7,1,8,
{4}7bh[8:1]/2bh[8:1],6bh[8:1]/3bh[8:1],4/5q1[8:1],5b/3p7[8:1],
{16}6,5,4,3,2,1,8,7,{4}6-1[8:1],4-7[8:1]*-1[8:1],
4bx,5-2[8:1]*-8[8:1],5bx,{16}7,6,5,4,
3,2,1x/6x,5,4,3,2,1,{8}8x4x,7x/5x,6,5/3,
{4}4q5[8:3],4/6,7,{8}2,1,
3,4/5,6,5/4,3,5/4,6,7/8,
1,2/3,{4}4-7[8:1],{8}4/2,3,2,5,
{4}8x<5x[8:1],{8}2/8,1b>7[4:1],,,,,{4}2-6[8:1],
2/7-3[8:1],1<5[4:1],1b/5b>1b[4:1],
,7-4[8:1],7b/8b-3bx[8:1],1-6[8:1],
1/2,{16}2,6,2,6,3,5,3,5,3,5,3,5,
{4}4V28[4:1],4x/6x,7-5-3[4:1],7bx/5bx,
2-5[8:1],1-5[8:1],8-5[8:1],7,
{16}7,5,7,5,{8}7,6h[4:1]/4h[4:1],,,4/2,3,
6/4,5,{16}2,2,{8}5,4/3,2,4/3,6q7-1-3-5[1:1],
,,,,,,,,,,{4}4h[4:1],
5h[4:1],6-8>2-4[2:1],
{8}6/7,,,1bx-5[8:1],,,{4}2-4-8[4:1],
8x/2x,6,{8}7/1,2,3/4,5,
{2}6h[4:1]/4h[4:1],5h[4:1]/3h[4:1],
4h[4:1]/2h[4:1],3h[4:1]/1h[4:1],
{4}2h[4:1],{8}3,2,4,5,{4}4h[8:1],
5/6pp5[2:1],3,3,3,
5/4,{8}5,3,{4}6<1[16:3],{8}4,3,
{4}2>5[16:3],{8}1,8-5[8:1],,8x/4x,,3,
4,5,6,4,3h[4:1],5,5,4h[4:1],
,6,,3,5,4,3,2,
1-7[8:1],7bv5b[16:3],,,6xh[4:1],,,5x/2x,
,3/4,2,6/5,7,6/5,4,4,
{4}5/7-3[8:1],8-4[8:1],1-5b[8:1],{8}1b,3bx,
E
