&title=SAN値直葬
&artist=STEAKA/初音ミク
&first=0.08
&lv_5=14+
&des_5=AUR0RA
&inote_5=
(168){4},,,,7h[8:1],
7h[8:1],{16}7,{8},{16}7,{8},2-4-1-5-8-6[4:3],
,4b,{16},1b,{8},{16}5b,{8},{16}8b,{4},7h[8:1],
7h[8:1],{16}7,{8},{16}7,{8},2>4-1s5[8:5],
{1}6<8-5s1b[2:1],
{8}8/7,6,8/7,5,8/7,4,8/7,3,
8/7,2,8/7,1,1/2-6[8:1],3/8,{4},{8}2/1,
3,2/1,4,1/2,5,2/1,6,
2/1,7,2/1,8,8/7,{16}1,2,{8}3,4,
6/5,7,6/5,4,6/5,8,6/5-2[8:1],3,
5/6-1[8:1],1,6/5-1[8:1],2,6/5,{4},{16}6,5,
{8}4/3,2,3/4,5,4/3,1,3/4-7[8:1],6,
4/3-8[8:1],8,3/4<3[4:1],7,{4}3/4,{8}4-1[8:1],4,
{4}6/4-7[8:1],2/4>1[8:1],{8}6/4<7[8:1],5,{4}2/4p8[8:1],
{8}6/4q8[8:1],5,{4}2/4-8[8:1],4/6,5-8[8:1],
3/5-2[8:1],7/5<8[8:1],{8}3/5>2[8:1],4,{4}7/5q1[8:1],
{8}3/5p1[8:1],4,{4}7/5<4[4:1],{2}5/3,
{8}8/6,5,3/1,4,8/7,6/4,5/3,2/1,
{16}8,7,6,5,{32}1,2,3,4,5,6,7,8,5h[64:1],4h[64:1],3h[64:1],2h[64:1],1h[64:1],8h[64:1],7h[64:1],6h[64:1],5h[64:1],4h[64:1],3h[64:1],2h[64:1],1h[64:1],8h[64:1],7h[64:1],6h[64:1],
{1}5b/4b,
{32}8/4,7,6,5,{8},{32}8/4,1,2,3,{8},{32}8,7/1,6/2,5/3,{24}4,B4,C,{4}B8,
{16}7,5,6,4,8,5,6,3,7-5[16:1],5,1-3[16:1],3,{8}7,1,
{16}6,8,7,1,5,8,7,2,6-8[16:1],8,4-2[16:1],2,{8}6,4,
6,{16}6,8,{8}7,5/8,{16}3,1,3,1,{8}2,4/1,
5,{16}5,8,{8}7,8/4,{16}4,1,4,1,{8}2,5/1,
{16}8,6,4,8,2,4,8,6,2-6[16:1],8,4-8[16:1],6,{8}2,4,
{16}5,7,1,5,3,1,5,7,3-7[16:1],5,1-5[16:1],7,{8}3,1,
8,4/2,4/6,8/6,1,5/7,3/5-1[8:1],3/1,
{4}5<8[8:1]*>2[8:1],5w1[8:1],,{16}7,6,5,4,
{4}3bh[8:1]/2bh[8:1],{8}1/4,{16}2,3,4/1,5/8,6,7,{8}5/8,{16}6,7,
8/5,4/1,2,3,4/1,1,,4,{24}4/1,2,3,4,5,6,1,2,3,4,5,6,
{16}1b,1b,1b,1b,{8}8/2,{16}7,5,6,5,{8}7,8/4,{16}2,4,
3,4,{8}2,{16}5/1,5,,1,{24}5/1,4,3,2,1,8,5,4,3,2,1,8,
{4}7bh[8:1]/6bh[8:1],{8}8/5,{16}6,7,8/5,4/1,2,3,{8}1/4,{16}2,3,
4/1,5/8,6,7,5/8,5,,8,{24}5/8,4,3,2,1,8,5,4,3,2,1,8,
{16}5b,5b,5b,5b,{8}6/4,{16}3,1,2,1,{8}3,4/8,{16}6,8,
7,8,{8}6,{16}5/1,1,,5,{24}1/5,2,3,4,5,6,1,2,3,4,5,6,
{16}1,{8},{16}1,{8}1,2/8,6/4,{16}5,5,{8}5,{16}5,5,
{8}5,6/4,2/8,1,2/8,1/7,8,8,
{16}8,{8},{16}8,{8}8,7/1,5/3,{16}4,4,{8}4,{16}4,4,
{8}4,5/3,1/7,8,7/1,8/2,1,1,
{16}1,{8},{16}1,{8}1,4/6,8/2,{16}5,5,{8}5,{16}5,5,
{8}5,8/2,6/4,1,2/8,7/1,8,8,
{16}8,{8},{16}8,{8}8,5/3,7/1,{16}4,4,{8}4,{16}4,4,
{8}4,7/1,5/3,8,7/1,8/2,{4}1-4[8:1],
6b/1-6[8:1],{8}4/1-4[8:1],5,6/1-6[8:1],5,4/1-4[8:1],5,
6/1-6[8:1],5,4/1-4[8:1],5,6/1-5[8:1],7,{4}1/8-5[8:1],
3b/8-3[8:1],{8}5/8-5[8:1],4,3/8-3[8:1],4,5/8-5[8:1],4,
3/8-3[8:1],4,5/8-5[8:1],4,3/8-4[8:1],2,{4}1/8,
{8}6/8,{16}7,5,{8}8,7/3,6/2,5/1,5/1,2,
3/1,{16}2,4,{8}1,2/6,3/7,4/8,8/4,7,
{16}2,6,1,6,8,6,7,6,{32}1,2,3,4,8,7,6,5,4,3,2,1,{8}8v2-8b[8:5]/4v6-4[8:5],
{1},{8}B7h[4:1]/B6h[4:1]/B2h[4:1]/B3h[4:1],
{4},{8}B8h[4:1]/B1h[4:1]/B5h[4:1]/B4h[4:1],{4},Ch[4:1],
{8},B6/B7,{24},B2/B3,{6},{32}8/E8,B7,{16}B6,,{32}8/E1,B1,{8}B2,{32}8/E8,B7,{16}B6,
,{32}1/E2,B2,{8}B3,{32}1/E1,B8,{16}B7,,{32}1/E2,B2,{8}B3,{32}8/E8,B7,{16}B6,,{32}8/E1,B1,{8}B2,
{32}8/E8,B7,{16}B6,,{32}1/E2,B2,{8}B3,{32}1/E1,B8,{16}B7,,{32}1/E2,B2,{8}B3,5,5,
{16}5b,6/4,7/3,8/2,{32}1,B1,C,B5,{16}A5,A6,A7,{8},{16}A8,{8},C,
{16}4b,5/3,2/6,1/7,{32}8,B8,C,B4,{16}A4,A3,A2,{8},{16}A1,{8},C,
5,{4},,,{8}B8f/B1f,
,C,B5f/B4f,B8f/B1f,{4}Cfh[4:1],8-5[16:1],
7b/8-4[16:1],6b/8-3[16:1],5b/8-2[16:1],8/4b-1[16:1],
3b/4-8[16:1],2b/4-7[16:1],1b/4-6[16:1],4/8b-5[16:1],
7b/8-4[16:1],6b/8-3[16:1],5b/8-2[16:1],8/4b-2-5-1-6-8[2:1],
,,,Cf/8-5[16:1],
7b/8-4[16:1],6b/8-3[16:1],5b/8-2[16:1],8/4b>6[8:1],
4,{8}5,1/7,{4}3/1-5[16:1],1,
4/2,{8}Cf,6/4,{4}6/8,{8}Cf,4/6,
{4}2/4-8[16:1],4/1>5[8:1],{16}1/5,6,7,8,{4}1-4[16:1],
2b/1-5[16:1],3b/1-6[16:1],4b/1-7[16:1],1/5b-8[16:1],
6b/5-1[16:1],7b/5-2[16:1],8b/5-3[16:1],5/1b-4[16:1],
2b/1-5[16:1],3b/1-6[16:1],4b/1-7[16:1],1/5b-7-4-8-3-1[2:1],
,,,Cf/1-4[16:1],
2b/1-5[16:1],3b/1-6[16:1],4b/1-7[16:1],1/5b<3[8:1],
5,{8}4,8/2,{4}6/8-4[16:1],8,
7/5,{8}Cf,3/5,{4}3/1,{8}Cf,5/3,
{4}1/3-5[16:1],1/3-6[16:1],1/3-7[16:1],1/3-1b[16:1],
3b/6-8b[16:1],{8}6/4-8b[16:1],3,{4}4/2-4b[16:1],2b/7-5b[16:1],
{8}7/1-5b[16:1],2,3/1<6[16:1]*>4[16:1],2,{4}1w5[16:1],1-3b[16:1],
1b/6-4b[16:1],{8}6/8-4b[16:1],1,{4}2/8-6b[16:1],4/8b,
{8}1/3,8/2,7/1-5b[16:1],2/8,{4}3/1,{16}6-8b[16:1],5,4,3,
{4}6b/2-8b[16:1],{8}2/5-1b[16:1],6,{4}5/7-5b[16:1],7b/3-5b[16:1],
{8}3/8-4b[16:1],7,6/8>3[16:1]*<5[16:1],7,{4}8w4[16:1],8-6b[16:1],
8/3-1b[16:1],{8}3/1-5b[16:1],8,{4}1/7-1b[16:1],{8}7/1-5b[16:1],2,
{4}3/1-6b[16:1]*-4b[16:1],1,{16}2,3,4,5,{4}6-8b[16:1],
6b/3-1b[16:1],{8}3/5-1b[16:1],6,{4}5/7-5b[16:1],7b/2-4b[16:1],
{8}2/8-4b[16:1],7,6/8>3[16:1]*<5[16:1],7,{4}8w4[16:1],8-6b[16:1],
8b/3-5b[16:1],{8}3/1-5b[16:1],8,{4}7/1-3b[16:1],5/1b,
{8}8/6,1/7,2/8-4b[16:1],7/1,{4}6/8,{16}3-1b[16:1],4,5,6,
{4}3b/7-1b[16:1],{8}7/4-8b[16:1],3,{4}4/2-4b[16:1],2b/6-4b[16:1],
{8}6/1-5b[16:1],2,3/1<6[16:1]*>4[16:1],2,{4}1w5[16:1],1-3b[16:1],
1/6-8b[16:1],{8}6/8-4b[16:1],1,{4}8/2-8b[16:1],{8}2/8-4b[16:1],7,
{4}6/8-3b[16:1],2/8-5b[16:1],7/8-4b[16:1],8/1,
5/E1f,5/E8f,5/E7f,5/E6f,
5/E5f,5/E4f,{16}E6f/E2f,{8},{16}E3f/E7f,{8},E8f/E4f,
{4}4/E1f,4/E2f,4/E3f,4/E4f,
4/E5f,4/E6f,{16}E8f/E4f,{8},{16}E7f/E3f,{8},E6f/E2f,
{4}1/E5f,1/E4f,1/E3f,1/E2f,
1/E1f,1/E8f,{16}E6f/E2f,{8},{16}E7f/E3f,{8},E8f/E4f,
{16}8/E5f,{8},{16}7/Cf,{8},6/E1f,{16}1/E5f,{8},{16}2/Cf,{8},3/E1f,
{16}8/E5f,{8},{16}7/Cf,{8},6/E1f,{16}1/E5f,{8},{16}2/Cf,{8},3/E1f,
E
