&title=MY GLORY WANTED!!!
&artist=曲: Kijibato / 歌: R.B.P. [九條 楓(CV:佳村 はるか)、逢坂 茜(CV:大空 直美)、珠洲島 有栖(CV:長縄 まりあ)]
&first=-0.079
&des=あゆり
&lv_5=14+
&des_5=あゆり
&inote_5=
(240){4},{16},,,,1x,8x,1x,8x,1x-5[8:1],8x,1x,8x,
{4}1bx/Cf,6h[8:1],{8},7h[8:1],,,8h[8:1],
,,1h[8:1],,,{4}2,
8b<1[2:3],3h[8:1],{8},2h[8:1],,,1h[8:1],
,,8h[8:1],,,{4}7,
8h[4:1],{8}7,6h[4:1],,1,{4}2h[4:1],
{8}6,5h[4:1],,2,4V68[4:1],3,{4}4,
{8}2,1-6V47[8:3],,1/4,3,2,1,8-3[8:1],
,7/8-5[8:1],,8,{16}4,3,2,1,8,7,6,5,
{2}4/Cfh[4:1],{8}1,7,1,8-6[8:1],
,8>4[4:1],,8/5h[4:1],,,5,5,
{16}3,4,{8}3,5,5,{16}6,5,{8}6,4,4,
{16}3,2,1,8,7,6,5,4,3/6,7,8,1,2,3,4,5,
{4}6h[4:1],Cf,{8}4,6,5,5,
{16}3,4,{8}3,{16}5,4,{8}5,{16}3,2,{8}1,{16}5,6,{8}7,
(360)8x/1x,7x/2x,3x/6x,4x/5x,,6,4,5,
3,4,{4}2,{8}1b,8,7,6,
5,4q5[0.1667##0.5833],{4}3xh[#0.666666],,,,(240),
2,6h[4:1],
{8},2-5[4:1],,6pp8[4:1],,,,,{4}B2/E3/B3,
6,{8}2h[4:1],,,3-8[8:1],
,3,,7-3[8:1],,7,,,{4}5,
3h[4:1],{8},7-4[4:1],,3qq1[4:1],
,,,,{4}B7/E7/B6,3,
{8}7h[4:1],,,6-1[8:1],,6,5,4,
3,2,(160)3/4,4/5,5/6,{16}7,8,7,8,{8}7,
1/2,3/4,{16}6h[16:3],5,,5,{8}7/4,{16}3h[16:3],4,,4,{8}2/5,
1/8,2/7,{16}3,5,4,6,{8}2,{16}6,5,{32}B7/A7/E8,,,B3/E4/A3,,,{16}B5/A5/E6,
{32},B1/E2/A1,,,{8}C,{16}2h[16:3],1,,1,{8}3/8,{16}7h[16:3],8,,8,{8}6/1,
3/5>1[8:1],6/4,{4}7/5,{16}8,1,7,1,6,5,7,4,
1,2,8,2,4,3h[8:1],,5,{8}4h[8:1],{16}6,5h[8:1],,7,{8}6h[8:1],
8,1,{16}8,2,7,3,8,2,7,3,(220)1,8,7,6,
5,4,3,2,1,8,7,(160)6,{8}6h[8:1],{16}5,5h[8:1],,4,{8}4h[8:1],
{16}3,3h[8:1],,1-5[0.375##0.1],,8/2,,(300)1b/Cf,,,,,,,,,,,,4,
,6,,3,,3,,5,,5h[4:1],,,,,,8,
,6,,1,,1,,7,,7h[4:1],,,,8,
,1,,2h[4:1],,,,5,,6,,7h[4:1],,,,3,
,5,,4h[4:1],,,,6,,3,,5h[4:1],,,,,,4,
,6,,3,,5,,4,,4h[4:1],,,,8,
,1,,2h[4:1],,,,4,,5,,6,,3,
2,1,8,7-3b[0.2##0.3],6,5,4,(200)3,,,,2<8v3[2:1],,,,,,,,6>4v7[2:1],
,,,,,,,2x<4[8:3],,,,,,4x>1[8:1],
,,,,,8p4[0.3##0.125]*q4[0.3##0.125],,,,(240)8,,,,B6/B5,
,B2/B3,,,,B8/B7,,,,B3/B4,,,,5,,4/6,
,7/3,,2h[4:1]/8h[4:1],,,,,,,,2b-5[8:1]/6b-1[8:1],,,,6/2<4[8:3],
,,,4,,3,,2,,1-3[8:1],,,,1/5-1[8:1]*-3[8:1],,,,5,
,,,2h[4:1],,8-3[8:1],7,6,5,8-6[8:1],,A3,,8-2[8:1],
,A6,,8-5[8:1],,A2,,4/8,3,2,1,4,,4,,8,
,8,,5,6,7,8,2,3,4,5,8<5[8:1]/6-1[8:1],,,,6/8,
,,,2,,3-8[8:1],,4,,5x-1[8:1],,,,2h[4:1],,,,8V64[4:1]*V24[4:1],
,,,8,,,,,,5,{48},,,,,4,,,,,,,,3,
,,,,,,,{16}2/5,{48},,,,,3/6,,,,,,,,7/4,,,,,,,,{16}8b/5>2[4:1],,,,2<7[4:1],
,,,7<4[4:1],,,,4,,,,1-6[8:1]*-4[8:1],,,,,,,,5,
,6-1[8:1],,7,,6/8-4[8:1],,,,2h[4:1],,,,3>8[4:1],
,,,4,,5,,6,,7h[4:1],,,,1,
,1,,6,,2,,7,,7-4[8:1],,,,3-8[8:1],,,,,,,,5,
6,7,1,2,3,8qq4[4:3],,,,,,,,,,,,,,,,1pp5[2:1],
,,,,,,,,,,,,,,,7b/4b,
,4,,2b/5b,
,5,,4b/8b,,4,,6b/2b,,6,,8,7,6,5,8,
1,2,3,7,6,5,4,7,8,1,2,7-4[8:1]/3-8[8:1],,,,3/7>5[8:3],
,,,5,,6,,7,,8-6[8:1],,,,8/4-8[8:1]*-6[8:1],,,,4,
,,,7h[4:1],,1-6[8:1],2,3,4,5/1-3[8:1],,A6,,1-7[8:1],
,A3,,1-4[8:1],,A7,,5b/1,6,7,8,5,,5,,1,
,1,,4b,3,2,1,7b,6,5,4,1>4[8:1]/3-8[8:1],,,,3/1,
,,,7,,6-1[8:1],,5,,4-8[8:1],,,,7h[4:1],,,,1V35[4:1]*V75[4:1],
,,,1,,,,,,(300)4x,{48},,,,,5x,,,,,,,,6x,
,,,,,,,{16}7x/4x,{48},,,,,3x,,,,,,,,2x,,,,,,,,(240){16}1x/4x<7[4:1],,,,7>2[4:1],
,,,2>5[4:1],,,,5,,,,8-3b[8:1]*-5b[8:1],,,,,,,,4,
,3-8[8:1],,2,,3/1-5[8:1],,,,7h[4:1],,,,6<1[4:1],
,,,5,,4,,3,,2h[4:1],,,,8,
,8,,3,,7,,2,,2-5[8:1],,,,6-1[8:1],,,,,,,,4,
3,2,8,7,6,1b/5b,,2,,7/3,
,6,,5/1,,,,2/6,,3/7,,4/8,,,,8b/4b,
,7,,2/6,,3,,4/8,,7,,6/2,,3b,,3,
,5,,5,,2/6,,,,4b,,6,,3/7,,,,6b,
,6,,4,,4,,5,,3,,6/2,,7-4[8:1],
,4V61[4:1],,,,,,,,,,2-5[8:1],,1,,2,
,,,8-4[8:1],,5,,8,,3-7[8:1],,5,,3,,6-1-7<5b[8:3],
,,,6/4,,,,5x,4x,3x,2x,1xh[4:1],,,,5,
,5,,3,,4-7>8-6[8:3],,,,4,,,,,,1-3<4-2[8:3],
,,,1,,,,,,,,6x-8[8:1],,,,6V42[4:1],
,,,6,,,,,,1,,5,,2,,6,
,3,,7,,6h[4:1]/5>8[4:1],,,,,,,,,,7,
,6,,5,,3h[4:1]/4<1[4:1],,,,,,,,,,2x,
,1x,,8x,,7x>4[8:3]/2x<5[8:3],,,,,,,,,,A5/D5/A4,
,,,A7/D7/A6/E7,,,,A2/D3/A3/E3,,,,5/1,,,,2/6,
,,,3/7,,,,8,7,6,5,1/4,8,7,6,2/5,
1,8,7,6/2-6[4:3],3,4,5,6,,,,,,,,,,,,,,,,2-4-1-5-8-6[4:7],
{1},,{16},,,8>7[4:3],
,,,,,,,,,,,,,,,E7,
,,{8}E3,
{16},C,,2xV41-6[8:3],,,,,,,,,,5h[4:1],,,,,,4,
,5,,E6/E4,{48},,,,,E7/E3,,,,,,,,E8/E2,,,,,,,,{16}D1,
,D8/D2,,D7/D3,,D6/D4,,,,4h[16:1],,5h[16:1],,3h[16:1],,6h[16:1],
,2h[16:1],,7h[16:1],,1h[16:1],{48},,,6b,,5,,4,,3,,2,,1,,8,,7,,6,,5,,3b,,4,,5,,6,
,7,,8,,1,,2,,3,,4,,5/8b,,7,,6,,5,,4,,3,,2,,1,,8,,7,,6/1b,,2,,3,,4,,5,,6,,7,,8,
,1,,2,,3,,,,{16}E7,B7,B8,E1,4x,,4x,,7xh[4:1],,,,,,3-8[8:1],
,,,3h[4:1],,,,7bxh[8:5],,,,,,,,,,3,
{48},,,,,3,,,,,,,,4,,,,,,,,{16}3,{48},5,,,,3,,,,,,,,6,
,,,,,,,{16}6,{48},,,,,5,,,,,,,,4,,,,,,,,{16}4,{48},,,,,5,,,,{16}6,
{48},7,,,,8,,,,{16}2-4[8:1],,1-5[8:1],,2b,,1b,,,,7/3h[4:1],,,,8<4[4:1],
,,,E4,E3,E2,E1,E8,E7,E6,E5,E4,E3,5h[4:1]/E2,
,,,,,,,1,,1,8,1,,1,,1,
8,1,8,1,,8,,(280)1,2,3,4,5,6,7,8,5/1,
4,3,2,1-5[0.2143##0.125],8,7,6,(240)5V36-2b[8:3],,,,,,,,,,,,E1,
B8,B7,E7,(280)E5,B4,B3,E3,E6,B6,B7,E8,E2,
B2,B3,{8}E4,{16},,,(210)5,{48},3,,,,4,,,,{16}3,{48},4,,,,3,,,,{16}2,
{48},3,,,,1,,,,{16}3,{48},1,,,,3,,,,{16}8/4,{48},,,,,7/3,,,,,,,,6/2,,,,,,,,{16}5/1,
,B2,,B4,,C,,B6,,B8,,1bw5[2:3],{1},{4},,,{16},,,2q4[2:3]/6q8[2:3],
{1},{4},,,{16},,,4h[4:1],
,,,6h[4:1],
,,,5h[4:1],,,,7h[4:1],,,,E1,,E2,,E3,
,5h[8:3],,,,,,,,,,4b,,4,,4,
,4,,5b,,5,,5,,5,,4b,5,3,6,2,
7,1,8,2,7,3,6,4,,,,(300)2/6b,{48},,,,,3,,,,,,,,4,
,,,,,,,{16}5/1b,{48},,,,,6,,,,,,,,7,,,,,,,,{16}8/4b,{48},,,,,1,,,,,,,,2,
,,,,,,,{16}3/7b,{48},,,,,4,,,,,,,,5,,,,,,,,(240){16}6/2b<7[4:1],,,,7x<4[4:1],
,,,4x>1[16:3],,,,,,,,8x-5[8:1]*-3[8:1],,,,8,
,,,4,,3/5,,6/2,,7-3[8:1]/1-6[8:1],,,,1/7>4[8:3],,,,7x,
,,,5,,6,,7,,8-4[8:1],,8,,3-8[8:1],
,3,,6-1[8:1],,6,,2,,2-4[8:1]*-6[8:1],,,,2-8[8:1],,,,2,
,,,,,7/1,,6/2,,3/5-8[4:1],,,,,,,,4-1[4:1],
,,,,,,,8V64[4:1],,,,,,,,8V24[4:1],
,,,,,,,5b-1[8:1],,,,4b-8[8:1],
,,,6b-2[8:1],,,,3b-7[8:1],,,,Cf,,,,,,,,1>4[4:1],
,,,4<7[4:1],,,,7>2[4:1],,,,2>5[4:1],
,,,5-7>8-4[4:3],,,,,,,,,,,,4-2<1-5[4:3],
,,,,,,,,,,,5h[4:5],,,,,,,,B4/E4,
,,,E8/B8,,,,B6/B5,,,,B1/B2,
,,,4h[4:5],,,,,,,,B5/E6,,,,E2/B1,
,,,B3/B4,,,,B8/B7,,,,5<4[4:3],,,,,,,,,,,,4>5b[4:3],
,,,,,,,,,,,4h[4:3],
,,,,,,,,,,,E8,
,,,E7,,,,E6,,,,5-1-3[4:1],,,,6,
,,,7,,,,8-4[4:1],,,,1,,,,2>5v3[2:1],
,,,5,,,,7,,,,8<5b[4:1],,,,5,
,,,4-8<5[2:1],,,,3,,,,2,,,,1-5[4:1],
,,,8,,,,7<4q1[2:1],,,,4,,,,2,
,,,3h[4:1],,,,,,,,3>8v2[8:3],,,,,,,,,,6>3[8:1],
,3,,6,,,,2<7[8:1],,7,
,2,,,,6-2[8:1],,5,,4,,,,3-7[8:1],,4,
,5,,6,,6,,2,,2V46b[4:1],,,,6V82b[4:1],,,,,,,,,,E7,
,B5,,2,,6,,3,
,7V53[4:1],,,,3V17[4:1],,,,,,,,3,,2h[4:3],
,,,6,{48},,,,,7,,,,,,,,8,,,,,,,,{16}1h[8:3],,,,3,
4,5h[4:1],,8,7,6,,6/4,,3/5,,2,4,2,4,3,
5,3,5,4,6,4,6,1x>8b[1:1]/8x<1b[1:1],{32},,,,,,8b/1b,D8/D2,D7/D3,D6/D4,{1},{16},,4-7[8:1]/5-2[8:1],
,,,4/5,,,,Cf,,,,7,,8-3V52[8:3],,,,8/5,
,6,,7,,8,,1-6[8:1],,,,2/1-4[8:1],,,,1,
,5,6,7,8,1,2,3,4,5bh[1:1]/Cfh[1:1],,,,,,,,,,,,,,,,,6,
7,8,1,
2,3,4,5,6,7,8,1,1,1,1,1bw5[8:1],,,,,,,,8,
,1-3[8:1],,,,1<5[4:1],,,,1/4h[4:1],,,,,,4,
,4,,6,5,6,,4,,4,,3,
4,3,,5,,5,,6,7,8,1,2,3,4,5,6/3,
2,1,8,7,6,5,4,1,3,1,3,Cf,,,,5,
,3,,4,,4,,6,5,6,,4,5,4,,6,
7,8,,4,3,2,,(360)1b,,5,,3,,7,,,,8b,
,4,,6,,1,,5,,3,,,,4b,
,8,,2,,5,,1,,7,,3,,,,8b,
,4,,6,,2,,,,1b,,5,,3,,8,
,4,,6,,,,5b,,1,,7,,4,,8,
,2,,6,,4,,8,7,6,5,4,3,2,1,8,
1,2,3,4,5,6,7,8,1,2,{8}3,{16},(240)8b/4b,7/3,6/2,
5/1,4/8,7,6,5,4,3/7,2/6,1/5,8/4,3,2,1,8w4b[8:1],,,,B7/D3/A2/A6/D7/A7/E2/E3/E4/E5/A3/E6/E8/E1/B8/B1/B2/B3/B4/B5/B6/E7/Cfh[64:1],
E
