&title=NIGHTWAVE FRAGMENTS
&artist=DJ Noriken
&first=0
&des=M1zuki fused with YYlY
&lv_5=14
&inote_5=(190)
{1},
{1},
{8}2h[8:3],,,3h[8:3],,4,4h[8:3],,
{24},,,E5,B5,B6,E7,,,3,,,3-5[8:1],,,,,,8,,,,,,
{8}7h[8:3],,,6h[8:3],,5,5h[8:3],,
{24},,,E5,B4,B3,E3,,,7,,,7-4[8:1],,,,,,1,,,,,,
{8}1h[8:3],,,2h[8:3],,3,3h[8:3],,
{24},,,E4,B4,B5,E6,,,1,,,1-5[8:1],,,,,,8,,,,,,
{8}7h[8:5],,,2h[4:1],,,2-5[8:1]/7-4[8:1],,
{8},,6xh[8:1],5h[8:1],4h[8:1],3h[8:1],1b,,
{8}2h[8:3],,4,4h[8:3],,5,5h[8:3],,
{24},,,E6,E7,E8,E1,,,3,,,3^5[8:1],,,,,,3/8,,,,,,
{8}8h[8:3],,6,6h[8:3],,5,5h[8:3],,
{24},,,E5,E4,E3,E2,,,7,,,7<4[8:1],,,,,,1/7,,,,,,
{8}1h[8:3],,7,7h[8:3],,5,5h[8:3],,
{24},,,E6,E7,E8,E1,,,2,,,2q6[8:1],,,,,,2/8,,,,,,
{8}7h[2:1],,6,5,4,3,2-5[8:1]/7-4[8:1],,
{8}2bqq5[2:1]/7bpp4[2:1],,,,,,,,
{8}4h[4:1]/5,,6,4h[4:1]/6,,7,4h[4:1]/7,,
{8}8,4h[4:1]/8,,7,6,5,4,3,
{8}2/6h[4:1],,3,3/6h[4:1],,4,4/6h[4:1],,
{8}5,4,3/8,7,1-5[8:1]/6,,,,
{8}4x/6,7,3/8,2,1/5,6,4/7,3,
{8}2/5,6,4/7,3,2/6,7,4/8,3,
{16}2,1,2,1,3,8,3,8,4,7,4,7,5-1[8:3],6,5,6,
{16}5h[8:5],,,,,,,,,,,,4/8,3/7,2/6,1/5,
{8}4b-7[8:1]/8b-3[8:1],,4b/8b,,2>5[8:1]/6,,2/5,6<1[8:1],
{8},5/6,4,3-8[8:1],,3/7,7h[4:1],,
{24}1,2,3,4,,,5/6,,,7,6,5,4,,,2-6[8:1],,,,,,2/8,,,
{8},8h[8:1],7h[8:1],6h[8:1],5h[8:1],4h[8:1],3h[8:1],2h[8:1],
{8}1b-5[8:1],,1b/7b,,6v1[8:1],,3/6,2>5[8:1],
{8},1/2,8,7-3[8:1],,3/7,1-5[8:1],,
{8}1/6<1[8:1],,6,3<6[8:1],,3,,8-4[8:1],
{16},,4/8,,2h[4:1],,,,5,6,7,8,5,4,3,2,
{8}1b-4[8:1]/5b-8[8:1],,1b/5b,,7h[8:1],5h[8:1],4h[8:1],2h[8:1],
{8}1-5[8:1],8-4[8:1],1,8,,3,2/5,,
{24}1,2,3,4,,,5/6,,,7,6,5,4,,,1-5[8:1],,,,,,1/8,,,
{8},6>3[8:1],3,6,2,1,8,7,
{16}2bz6[4:1]/6b,,,,,,,,8V64[16:3],,,,3/8,,2-6[8:1],,
{8},2/6,7,8-4[8:1],,3/8,2-5[8:1],,
{8}6V83[16:3],,6,2V47[16:3],,2,,8-4[8:1],
{16},,4/8,,2h[4:1],,,,5,6,7,8,1,2,3,4,
{1}1b-5[1:3]/5b,
{1},
{1},
{8},,,,,,4,5,
{4}4h[8:1]/6h[8:1],3h[8:1]/6h[8:1],3h[8:1]/5h[8:1],2h[8:1]/4h[8:1],
{4}3h[8:1]/5h[8:1],4h[8:1]/6h[8:1],5h[8:1]/7h[8:1],4h[8:1]/8h[8:1],
{16}3,7,3,7,2,6,2,6,1,5,1,5,8,4,8,4,
{16}8b,,,,,,1x,1x,1xw5[8:1],,7/3,,1b,,,,
{8}8-4[8:1],1,2,3-7[8:1],2,1,8-4[8:1],8,
{8}5<8[16:3],7>2[16:3],1^3[8:1],,,4,4,,
{8}3>8[8:1],4,5,6,7pp4[8:3],8,7/1,,
{8}3V51[16:3],,3/5,,7<4[8:1],8,1/7,,
{8}2-5[8:1],1,2,8-4[8:1],4,8,3,1-5[8:1],
{8},1/6qq7[4:1],,4,,2,1,8,
{8}7-4[8:1]/4,,3/7,2-6[8:1],,2/8>6[4:1],,4h[4:1],
{16},,,,7x,,7xh[8:3],,,,,,5,4,3,2,
{8}1-5[8:1],8,7,6-2[8:1],7,8,1-5[8:1],1,
{8}4>1[16:3],2<7[16:3],8<6[8:1],,,5,5,,
{8}6<1[8:1],5,4,3,2qq5[8:3],1,2/8,,
{8}6V48[16:3],,6/4,,2>5[8:1],1,2/8,,
{8}6<1[8:1],5,4,3,2>5[8:1],1,8,7V51[16:3],
{8},8b/7b,,2-6[8:1],,8b>6[8:3]/2b,,8b/Cf,
{16},,,,,,,,2h[4:1],,1,,,,7h[4:1],,
{16}8,,,,3h[4:1],,4,,5,,6,,Cf,,,,
{4}3/4,3h[4:1]/4,E3/B2,1,
{8}5/6h[4:3],,,7,,,1,,
{4}5,5pp4[8:3],B1/B2,3,
{8}2,6,3,5,4h[4:1],,C,,
{4}6/5,6h[4:1]/5,E7/B7,8,
{8}4/3h[4:3],,,2,,,8,,
{4}4,4qq5[8:3],B8/B7,6,
{16}8z4[8:3],,,,,,,,,,,,1,2,3,4,
{8}5-1[8:1]/7,,6x,,4-8[8:1]/2,,3x,3,
{8}5p1[8:1]/7,,6x,,4q8[8:1]/2,,3x,,
{8}5>1[8:1]/7,,6x,,4<8[8:1]/2,2,3x,3,
{4}5-8[8:1]/7,6x,4-1[8:1]/2,3x,
{8}4/8,7,2/6,3,4/7,6,2/5,3,
{8}4/8,7,1/6,2,3/7,6,1/5,2,
{16}3/5,,4,,5/6,,7,,1,8,3,6,2,7,4,5,
{16}Cf,,,,,,,,,,,,1/5,2/6,3/7,4/8,
{8}1b<6[8:1]/5b>2[8:1],,1-5[8:1]/5,,1/5,,
{24}8,7,6,2,3,4,
{8}1-6[8:1]/5-2[8:1],,1/5-1[8:1],,1/5,,
{24}2,3,4,6,7,8,
{8}1-5[8:1]/5,,1/8,,7-3[8:1],4-8[8:1],7qq2[4:1],4,
{8}7b,,1>4[8:1]*<6[8:1],,
{24}1,,,,,,
{8}7/3,6/2,
{8}5<8[8:1]/1>4[8:1],,5-1[8:1]/1,,5/1,,
{24}7,6,5,1,2,3,
{8}4-1[8:1]/8-5[8:1],,4/8-4[8:1],,4/8,,
{24}6,7,8,2,3,4,
{8}1/5-1[8:1],,5/7,,
{16}8w4[8:1],,1,1,8,,,,
{8}1/7,3/5,1/7h[4:1],,
{32}2,3,4,5,6,7,8,1,
{8}6b/2b,,
{8}1b>4[8:1]/5b<8[8:1],1/5,1/5-1[8:1],,1/5,,
{24}7,6,5,1,2,3,
{8}4-1[8:1]/8-5[8:1],,4<7[8:1]/8>3[8:1],,4/8,,
{24}5,6,7,8,1,2,
{8}3v8[8:1],,3/5,,1/7,3/5,2/8-4[8:1],4/6,
{8}8b,,5b/6b,1b/8b,3b-7[8:1]/4b-8[8:1],,3b/4b,,
{8}1-4[8:1]/5-8[8:1],,1<6[8:1]/5>2[8:1],,1/5,,
{24}1,8,7,6,5,4,
{8}8-3[8:1]/3,,8-5[8:1]/1,,8/7,,
{24}8,1,2,3,4,5,
{8}1w5[8:1]/6,,1/C,,8/2,4/6,2-5[8:1]/8-5[8:1],,
{1}2b>1[2:1]/8b<1[2:1]/Cf,
{16}1>4[8:1],,,7,1,,6,,5<8[8:1],,,3,5,,2,,
{48}1,,2,,3,,4>1[8:1],,,,,,7<4[8:1],,,,,,4q8[8:1],,,,,,7,,,,,,,,,,,,1,,,2,,,3,,,4,,,
{16}5>2[8:1],,,6,5,,6,,7-3[8:1],,,8,7,,1,,
{8}2-6[8:1],,2/6,,7/8,5/6,3/4,2/1,
{16}3-8[8:1]/7-4[8:1],,,,3/7,,,,1>4[8:1],,,5,1,,6,,
{16}7<4[8:1],,,8,7,,1,,2h[4:1],,,,8,7,6,5,
{16}4<7[8:1],,,2,4,,1,,8>3[8:1],,,7,8,,6,,
{16}5<8[8:1],,,4,5,,3,,1/2x,,3/4x,,5x/6,,7/8x,,
{8}6-1[8:1]/2-5[8:1],,6/2,,8-4[8:1],,8/3,,
{12}2<7[6:1],,7<4[6:1],,4>1[6:1],,1<6[6:1],,6>3[6:1],,3,,
{8}8-4[8:1],,1/8,,{12}2>5[6:1],,5<8[6:1],,8>3[6:1],,
{12}3<6[6:1],,6,,8,,
{16}1x,,3x/4x,,5x/6x,,7x/8x,,
{16}1-4[8:1]/5-8[8:1],,,,1/5,,,,2>5[8:1],,,1,2,,8,,
{16}7>2[8:1],,,5,7,,4,,3h[4:1],,,,4,5,6,7,
{8}8V64[8:1],,4/8,2-6[8:1],1,2/8,7b>6[2:1],,
{16}Cf,,,,,,,,E2,E3,E4,E5,E6,E7,E8,E1,
{1}1x-5[1:3],
{1},
{1},
{8},,,,,,3,,
{8}3h[4:3],,,7,6,5,4h[1:1],,
{8},,1,8,7,6,5h[1:1],,
{8},,2,1,8,7,6h[2:1],,
{8},,5h[8:1],4h[8:1],3h[8:1],5b-8[8:1],,,
{1},
{1},
{1},
E
