&title=[场外]电棍:让我在雪地上撒点野
&artist=白井嘿子_
&first=0.368
&des=因为我的冰就是没有感觉
&lv_6=15.0
&inote_6=(100)
{8}3,34,45,56,{24}3,,1-7[16:1],1-3[16:1],,5,4,,,,,,{8}6,65,54,43,{24}6,,8-2[16:1],8-6[16:1],,4,5,,,,,,
{8}3,24,45,57,{24}1,,8-4[16:1],3-8[16:1],,6,5,,,,,,{8}6,75,54,42,{24}8,,1-5[16:1],6-1[16:1],,3,4,,,,,,
{8}2,13,18,68,{24}1,,3-7[16:1],7-3[16:1],,4,5,,,,,,{8}6,86,81,31,{24}8,,6-2[16:1],2-6[16:1],,5,4,,,,,,
{8}3,24,15,68,{24}2,,1-4[16:1],4-1[16:1],,2,2,,,,,,{8}2>4[16:1],7<5[16:1],2/1-5[16:1],7/8-4[16:1],1/2-6[16:1],8/7-3[16:1],2,7,
{48}4-8[16:1],5,6,7,,,28,,,,,,{64}4b/E2f,B2,B3,E4,{16},3x/7x,,{72}46,37,28,{24},5-3[16:1],5-7[16:1],,8,{64}A1f,B1,C,B5,,,,,{8},
{48}5-1[16:1],4,3,2,,,17,,,,,,{64}5b/E8f,B7,B6,E6,{16},6x/2x,,{72}53,62,71,{24},4,4-6[16:1]*-2[16:1],,1,{64}A8f,B8,C,B4,,,,,{8},
{48}8>3[16:1],7,6,5,,,14,,,,,,{64}8b/E5f,E6,E7,E8,{16},4x/8x,,{72}38,27,16,{24},8-4[16:1],3-8[16:1],,6,{64}E5f,B4,B3,E3,,,,,{8},
{48}1<6[16:1],2,3,4,,,85,,,,,,{64}1b/E5f,E4,E3,E2,{16},5x/1x,,{72}61,72,83,{24},1-5[16:1],6-1[16:1],,3,{64}E5f,B5,B6,E7,,,,,{8},
{48}2-5-3[8:1],3,4,5,,,16,,,,,,{64}2b/E7f,B7,B8,E1,{16},1x,,{72}38,47,56,{24},3-7[16:1],7-3[16:1],,1,{64}A6f,D6,A5,D5,,,,,{8},
{48}7x-4-6[8:1],6,5,4,,,83,,,,,,{64}7b/E3f,B2,B1,E1,{16},8x,,{72}61,52,43,{24},6-2[16:1],2-6[16:1],,8,{64}A3f,D4,A4,D5,,,,,{8},
{48}87,6x,5,,,,43,2,1,,,,45,6,7,,,,81,2,3,,,,{24}45,,6,78,,3,12,,45,36,,,
{8}1b-5[16:1]b/4b,8b-4[16:1]b/5b,1b>3[16:1]b/4b,8b<6[16:1]b/5b,1b-4[16:1]b/4b,8b-5[16:1]b/5b,1b,8b,
{8}Cf,1,2-7[16:1]/7-2[16:1],36,27,,7-2-7[4:1]/2,6,72,,2-4v5-7[4:1]b,,7>7[16:3],,B5/B4/E5f,,
{8}8v2[8:1]*v6v4[4:1],B1/B3/A3,,,1-3[16:1]*v8-6[4:1],,1,,{96}A3,D3,A2,E4,B4,D2,A1,B8/B2/C,D1,B5,A8,E8,E6,E7,A6,,,,,,,,,,{8}2-4v5-7[4:1]b,,7>7[16:3],,B6/B7/E7f,,
{8},6>8[4:1],4>8[16:2],6,,,{96}1b,,,,2,,,,3,,,,7b,,,,6,,,,5,,,,2b,,,3,,,4,,,5,,,6,,,7,,,8,,,1,,,2b/7x,,,6,,,5,,,4,,,3,,,2,,,1,,,8,,,{96}3b/7b,,2/6,,1/5,,4q8[8:1]/8q4[8:1],,,,,,,,,,,,,,,,,,,,,,,,4b/8b,B1/C1f/B2/B3/B4/B5/B6/B7/B8,,,,,,,,,,,,,,,,,
{8},{16}4,4,{8}5V31[8:1]*V71[8:1],37,5b,,{4}8V61[4:1],1-5-2[4:1],2V47[4:1],4h[4:1],,
{8}36,27,18,{24},{64}A2/D2/A1/D1/A8/D8/A7,B8/B1,B7/B2,C,B6/B3,B5/B4/E5,A5/D5/A4,,,{16},,,,,{8}27,36,27,1v3V14[8:3]/8<7-1-6q5[8:3],B6/C,,,,,
{8}B7/E7/B6/B5,B2/E3/B3/B4,8p4p8<8[4:2],4,8,,3<4-2-5-1-6-8<6-1-5-2-4>3>2-4-1-5-8-6^8-5-1-4-2>3[4:1],,,,,2-5-7[4:1]/4-1-7[4:1],,,,,
{8},7,8<8<8<7-5>4-2<1-7<6-4>3-1<8-5[4:2]b,1h[8:5],8,,,,
{8},2,15,68,{64}15,26,37,48,1h[8:1]/5,6,7,8,,2,3,4,5,6,7,8,18,27,36,45,5,6,7,8,1,2,3,4,5,6,7,8,{8}1/Cf,{16}2,3,{8}4p8[4:1]*q8[4:1],26,4b,,,1,{4}1b>4[8:1]/5,1b<6[8:1]/5,1b/5w1[16:1]b,{128}A5f,E5/E6,B5/B4/B6,C,B1/B2/B8,A1,,,,,,,,,,,,,,,,,,,,,,,,,,,,,,
(200)
{24}1,2,3,4,5,6,7,8,1,2,3,4,5,6,7,8,1,2,3,4,5,6,7,8,1/6,5,4,3,2,1,8,7,6,5,4,3,2,1,8,7,6,5,41,8,7,6,5,4,{32}3/8,7,6,5,4,3,2,1,8,7,6,5,4,3,2,1,8,7,6,5,4,3,2,1,8,7,6,5,4,3,2,1,A8/A2,B8/B2,Cf,B5,{8}A5,,,,,,4h[8:1],{4}5q2[4:1],2-4-6-8-2[4:2],,,A2/E2/B2/B3/D2/D3f,,8,1-7[4:1],7-2[4:1],2-6[4:1],6-3[4:1],3V51[4:2],5h[4:2],,,,
{24}8,7,6,5,4,3,2,1,8,7,6,5,4,3,2,1,8,7,6,5,4,3,2,1,8/3,4,5,6,7,8,1,2,3,4,5,6,7,8,1,2,3,4,58,1,2,3,4,5,{32}6/1,2,3,4,5,6,7,8,1,2,3,4,5,6,7,8,1,2,3,4,5,6,7,8,1v7[8:1]*v4[8:1],2,3,4,5,6,7,8,{8}A1f,,,,,,,,{4}5,6,2,3,4p8[4:1]/8p4[4:1],,,1bv7[8:1],1bxv4[8:1],1bxv6[8:1],1bxv3[8:1],1bv7[8:1],1bxv4[8:1],1bxv6[8:1],1b,,
{24}1,8,7,6,5,4,8,1,2,3,4,5,1,8,7,6,5,4,8,1,2,3,4,5,68,1,2,3,4,5,1,8,7,6,5,4,8,1,2,3,4,5,61,8,7,6,5,4,{32}3/8,7,6,5,4,3,2,1,7,6,5,4,3,2,1,8,6,5,4,3,2,1,8,7,5,4,3,2,1,8,7,6,{40}A5,B5,Cf,B8/B2,A8/A2,{8}1xw5[4:1]b,,,,,,5h[8:1],{4}4v7[4:1],7-5-3-1-7[4:2],,,A7/E8/B7/B6/D8/D7f,,2,1-3[4:1],3-8[4:1],8-4[4:1],4-7[4:1],7V51[4:2],5h[4:2],,,,
{24}3,2,1,8,7,6,2,3,4,5,6,7,3,2,1,8,7,6,2,3,4,5,6,7,82,3,4,5,6,7,3,2,1,8,7,6,2,3,4,5,6,7,83,2,1,8,7,6,{32}51,2,3,4,5,6,7,8,2,3
,4,5,6,7,8,1,3,4,5,6,7,8,1,2,4,5,6,7,8,1,2,3,{40}A4,B4,Cf,B1/B7,A1/A7,{8}8xw4[4:1]b,,,,,,,{4}7,6,4,3,5q1[4:1]/1q5[4:1],,,8b-5[8:1],D8/A7/D7/A6/D6/E7/B8/B5/D1/E1/C/E5/D5/B1/B4/A1/A4/E2/B2/B3/E4/E3/D2/D4/D3/A2/A3/8b-3[8:1],D8/A7/D7/A6/D6/E7/B8/B5/D1/C/E5/D5/B4/A1/A4/E2/B3/E4/D2/D4/D3/A2/8b-4[8:1],D8/A7/D7/A6/D6/E7/B5/D1/E5/D5/A1/E2/B3/E4/D2/D4/D3/A2/8b>3[8:1],D8/A7/D7/A6/D6/E7/B5/E5/D5/B3/E4/D4/8b<5[8:1],B5/E5/D5/B3/E4/D4/8b-3<4[8:1],B5/E5/D5/8b-5>4[8:1],8b,,
{4},8,{32}8,7-3[4:1],6,5,,,,,7,6,5,4,,,,,5,6,7v2[4:1],8h[32:11],,,,,,,,,,,,,7v4[4:1],6,5,4,,8h[32:2],,,7,6,5,,,,,,1,8,7p1[12:5],6,,,,,8,7,6,5,,,,,7,6,5,4,,,,,5,6,7qq3[32:18],8h[32:21],,,,,,,,,,,,,,,,,,,,,,7,6,5-8[8:1],,,,,,,,,,,,,
{4},1,{32}1,2-6[4:1],3,4,,,,,2,3,4,5,,,,,4,3,2v7[4:1],1h[32:11],,,,,,,,,,,,,2v5[4:1],3,4,5,,1h[32:2],,,2,3,4,,,,,,8,1,2q8[12:5],3,,,,,1,2,3,4,,,,,2,3,4,5,,,,,4,3,2pp6[32:18],1h[32:21],,,,,,,,,,,,,,,,,,,,,,2,3,4-1[8:1],,,,,,,,,,,,,
{4},6,{32}6,5v8[32:7],4,3,,,,,3,4-1[4:1],5x,6,,,,,6,5,4x,3h[32:11],,,,,,,,,,,,,3,4,5pp7[4:1],6,,3h[32:2],,,4,5,6,,,,,,6,5,4,3,,,,,3,4,5q2[12:5],6,,,,,6,5,4,3,,,,,3,4,5q8[32:18],6h[32:21],,,,,,,,,,,,,,,,,,,,,,5,4,3-6[8:1],,,,,,,,,,,,,{4},
{32}15,26,37,48,,,,,15,48,37,26,,,,,15,26,37,48,,,,,15,48,37,2h[32:12]/6h[32:12],,,,,,,,,,,,,37,48,15,,,8h[32:2]/4h[32:2],,,37,26,15,84,,,,,
{48}1bx/2x,,,,,,18,27,36,45,,,1bx/2x,,,,,,18,27,36,45,,,1bx/2x,,,,,,18,27,36,45,,,1bx/2x,,,,,,18,27,36,45,,,1bx/2x,,,,,,18,27,36,45,,,1bx/2x,,,,,,18,27,36,45,,,1bx/2x,,,,,,18,27,36,45,,,1bx/2x,,,,,,18,27,36,45,,,E
