&title=目撃!テト31世
&artist=はろける
&first=0.6
&des_5=ホシノちゃん(31st)
&lv_5=13+
&des=ホシノちゃん(31st)
&inote_5=(160)
{4},,
{16}4bx/E7f,,,Cf/6bx,,,E3f/8bx,,1bx/E7f,,,7bx/Cf,,,2bx/E3f,,A1/B1/Cf/B5/A5,,,,,,1bx-4[1:1]/8bx-2v3-5b[1:1],,,,,,,,,,,,,,,,,,,,,,B5h[16:1]/B4h[16:1]/E5hf[16:1],,,,7xh[4:1],,,,2bxh[4:1],,,,
{8}1bp4b[8:1],,2v3b[8:1],,1-5b[8:1],,2-4b[8:1],,1p5b[8:1],1,2v4b[8:1],2,6,5,3/5<1b[4:3],,2h[1:1],,,,,,,,7bh[4:3],,2p5v2[8:3],,,,,,
{8}1bv6b[8:1],,2>5b[8:1],,1<8-6b[8:1],,2-4<5b[8:1],,1v6b[8:1],1,2>4b[8:1],2,6x,5,3/5<1b[4:3],,2h[1:1],,,,,,,,7bh[4:3],,4pp4[4:1],,4qq4[4:1],,,,
{8}1bx<6b[8:1],,2v5b[8:1],,1v6b[8:1],,2>5b[8:1],,1-6b[8:1],1,2-4b[8:1],2,6x,5,3/5<1b[4:3],,2h[1:1],,,,,,,,7b,,
{384}4xpp1[8:3],6xqq1[8:3],,,,,,,,,,,,,,,,,,,,,,,,,,,,,,,,,,,,,,,,,,,,,,,,,,,,,,,,,,,,,,,,,,,,,,,,,,,,,,,,,,,,,,,,,,,,,,,
{4},,
{8}1bxV75b[8:1],,2v4b[8:1],,1<5b[8:1],,2pp4b[8:1],,1-6b[8:1],1,2v4b[8:1],2,6x,5,3/5<1b[4:3],,2h[4:1],,,,3h[4:1],,,,7bh[4:3],,4-6[4:1],,,,,,
{16}7bh[8:1]/8h[8:1],,,4h[8:1]/6bh[8:1],,,3/4b,,1h[8:1]/2bh[8:1],,,3bh[8:1]/5h[8:1],,,5b/6,,7h[4:3]/3b,,,,4v2<6[4:1],,,,,,,,A6f,,,,
{8}2b-4b[8:1],1,5-1b[8:1],6,8-6b[8:1],7,2,3h[8:1],,3b,1b,7,8-5[8:1]/1pp1[4:1],,,,
{8}7b-5b[8:1],8,4-8b[8:1],3,1-3b[8:1],2,7,6h[8:1],,3b,1b,7h[8:1],2bv8[8:1]*v5[8:1],,2b,,
{8}3b-5b[8:1],2,3/7V15b[4:1],6,3V51b[4:1]/7,2,3,6h[8:1],,3b,1b,7,8-5[8:1]/1pp1[4:1],,,,
{8}E7h[1:1],,E3h[4:3],,E6h[2:1],,E4hf[4:1],,,,8x-4[8:1],7x,6xq2[8:1]*p2[8:1],,Cf,,
{8}1bx-3[8:1],8,4-8[8:1],5,7-5[8:1],6,1,2h[8:1],
{8}4<7b[8:1],1-4b[8:1],4V26b[4:1],1,8-5b[8:1],8,8,,
{8}8b-6[8:1],1,5-1[8:1],4,2-4[8:1],3,8,7h[8:1],
{8}5v8b[8:1],8>3b[8:1],7,6,5w1b[8:1],5,5,,
{8}3b-5[8:1],2,3/7V15[4:1],6,3V51[4:1]/7,2,3,6,7-3b[8:1],2-6b[8:1],7,2,8-4b[8:1],1-5b[8:1],8,1,
{8}7b-4b[8:1],,1b-6b[8:1]/7b,,1b/3bv8[8:1]*-7[8:1],,3b,,
{8}B4/B3/E4/D4f/A3/A4,,6h[8:1],,
{16}4>6<4[8:9],,5V36z2-8V64b[8:8],5,,,,,,,,,,,,,,,,,,,,,
{32}B1/B2/B3/B4/B5/B6/B7/B8/E1/E2/E3/E4/E5/E6/E7/E8/D1/D2/D3/D4/D5/D6/D7/D8/Cf,,,,,,,,,,,3,,,7,,,1,,,8h[8:3],,,4bx,,,,,3,,,,
{32}2bx,,,,,,,,,,,,,,,,5,,,4,,,7bx,,,3,,,7bx,,,3bx,,,4bx,,,,,,,,,7,,,1,,,1,,,2h[32:3],,,,A1/A2/A3/A4/A5/A6/A7/A8/B1/B2/B3/B4/B5/B6/B7/B8/D1/D2/D3/D4/D5/D6/D7/D8/E1/E2/E3/E4/E5/E6/E7/E8/Cf,,,,,,,,
{32},,7x,,7x,,3,,3,,,2,,,6h[8:3],,,3bx,,,,,4bx,,,,2bxv3-5[4:1],,,7bx,,,
{32},,,,,,,,,,,,,,,,7bxw3[8:1],,,3bx,,7bx,,,,,,,,,,,3bx/7bxv5v3[16:3]b,,,7bx,,,,,3bx,,,,1bx,,,,,8,,,,,7bxs3[4:1],,,,,,,,,,
{32},,,,,,,,,,,,7pp8-5b[4:1]/2v3-5[4:1],,,,,,,,,,,,,,,,,,,,,,1,,,1,,,7bx,,3bx,,6h[8:3],,,4-8b[8:1],,,4,,,,,,,,,,,,,,
{32},,,,7h[32:5],,,,,5,,,5,,,3bx,,,3bxh[32:3],,,,,,2bx,,,,,,,,,,,,7bx,,,,,,3bx,,,4bx,,,4bx,,,7bx,,,3bx,,2bx,,,3bx,,3bx,,,2bx,,,7bx,,,2bx,,3bxv5b[4:1]*>7b[4:1],,4bx,,2bx,,3bx,,,,,,,,,,,,,,,,,,
{32}7bx>3[16:3],,,,,,3v5[8:1],,,4,,,,4,,,4bx,,,,,,,,,,,,,,,,
{32}7x,,,,,,,,7x-5b[32:3],,,5xv8b[8:1],,,,,,,,,2,,,,3,,3,,6,,4,,6h[32:3],,,5h[16:1],,7h[32:11],,,,,,,,,,,,,2pp2[16:3],,,,,8qq8[16:3],,,,,,,,,,,,1x,,,,2,,2,,7,,A3,D4,A4,A7,D7,A6,,B1,C,B5,,
{32}8,,,8,,,2,,,,5s1b[16:9],,,,4z8[16:7],,,,,,,,,,,,,,,,,,,,,,,,,,
{64}1bx/8bx,2bx/7bx,3bx/6bx,4bxz8b[16:5]/5bx-1b[16:5],,,,,,,,,,,,,
{4},,7w3b[8:1],
{64}7b,B7,Cf,B3/B2h[32:1]/B4h[32:1],A2/A4,D3/D4/A3h[32:1],,,,,,,,,,,
{4},,1w5[8:1],
{64}1b,B1,Cf,B5,A5,,,,,,,,,,,,
{4}1w5[8:1],
{96}1b,,B1,,Cf,,B6,B4,B5,E6,E5,A5,,,,,,,,,,,,,
{4}8w4[8:1],A7/D8/8bx<1s5[8:5]/D1/A1/D2/A2/B2/Cf/B4/A4/D7,,,,
{64}D2/E2/Chf[64:1],A2,D3/E3h[64:1],A3,D4/E4h[64:1],A4,D5/E5h[64:1],A5,D6/E6h[64:1],A6,D7/E7h[64:1],A7,D8/E8h[64:1],A8,D1/E1h[64:1],A1,D2/E2h[64:1],A2,D3/E3h[64:1],A3,D4/E4h[64:1],A4,D5/E5h[64:1],A5,D6/E6h[64:1],A6,D7/E7h[64:1],A7,D8/E8h[64:1],A8,D1/E1h[64:1],A1,D2/E2h[64:1],A2,D3/E3h[64:1],A3,D4/E4h[64:1],A4,D5/E5h[64:1],A5,D6/E6h[64:1],A6,D7/E7h[64:1],A7,D8/E8h[64:1],A8,D1/E1h[64:1],A1,D2/E2h[64:1],A2,D3/E3h[64:1],A3,D4/E4h[64:1],A4,D5/E5h[64:1],A5,D6/E6h[64:1],A6,D7/E7h[64:1],A7,D8/E8h[64:1],A8,D1/E1h[64:1],A1,
{4}C,C,C,,
{32}4/6h[8:1],,,,,,,,3h[8:1]/B5,E5,,,,,,,4/6h[8:1],,,,,,,,3h[8:1]/B5,E5,,,,,,,
{4}8-2v3-5[8:5],1-4[4:1],,,
{32}5/3h[8:1],,,,,,,,6h[8:1]/B4,E5,,,,,,,5/3h[8:1],,,,,,,,6h[8:1]/B4,E5,,,,,,,
{4}6pp7b[16:3],6qq5b[16:3],3x-1b[8:1],,
{32}5/7h[8:1],,,,,,,,3h[8:1]/E7,B6,,,,,,,5/7h[8:1],,,,,,,,3h[8:1]/E7,B6,,,,,,,
{4}2h[4:1],D8/A8/B8/B7/E7/B6/D6/B5/A5,A1/E2/B2/B3/E4/A4,3xh[8:1]/7xh[8:1],
{4}7h[4:5]/8-6b[8:1],,2-4[8:1],,2pp4[8:1],2<8[8:1],5xw1[8:1],Cf,
{64}2bxz6[8:5]/8bx,3/7,4s8b[32:19]/6,5,,,,,,,,,,,,,
{4},,,5-8[8:1],4-1[8:1]/5,5w1[8:1]/4,A8/D8/A7/E7/B6/B5/E5f/B4/B3/E3/A2/D2/A1/E1,
{8}7bx<5b[8:1],8x,4q8[8:1],3,1q5b[8:1],2,7,6h[8:1],,3b,1b/2,8h[8:1],1bs5b[8:1]*V73[8:1],,1b,,
{8}4bx-6[8:1],3,4/8V26b[4:1],7,4V62[4:1]/8,3,4,7h[8:1],,3b,1b-6[8:1]/8,6-2-5b[4:1],7h[8:1],,8h[8:1],,
{4}1b-6b[8:1],1b/3b-8[8:1],3b/5bv2[8:1]*-1[8:1],5b,
{16}A6/E6/B6/B5/A5/D6f,,,,3h[8:1],,7s3[4:1],,1-5b[8:1],,,,,,,,
{32}Cf/E6,E5,E4,E3,E2,E1,E8,E7,E6,E5,E4,E3,E2,E1,E8,E7,D6,D5,D4,D3,D2,D1,D8,D7,
{64}A6,D6,A5,D5,A4,D4,A3,D3,A2,D2,A1,D1,A8,D8,A7,D7,
{4}A6f/D3h[4:3]/E3h[4:3]/A3h[4:3],,,,
{16}7b-5[8:1],,,,7/B5/E5,,,,1/2-4[8:1],,,8,2,,7,,6-1[8:1],,5,,2-5[8:1]/6,,3,,
{24}2bx-7[8:1]/8bx,,,8,7,6,5bx/2bx,,,,,,
{16}1bx/8bx,,2,4,3<6[8:1],,2bx/5bx,,3bx/7bx,,8,8,4-8[8:1],,3bx,,2bx/4bx,,1,1,7-4[8:1],,6bx,,7bx/8bxv5[8:1],,,,A2/D3/A3,,,,
{8}7b-4b[8:1],,1b-6b[8:1]/7b,,1b/3bv8[8:1]*-7[8:1],,3b,,
{8}B4/B3/E4/D4f/A3/A4,,,,
{16}D8h[8:1]/A7hf[8:1]/D7h[8:1],,,B1h[8:1]/Chf[8:1]/B5h[8:1],,,D3h[8:1]/A3hf[8:1]/D4h[8:1],,
{8}A7/B7/E7/D7/A6/B6/E6/D6/B5/A5,,,,
{16}D7h[8:1]/A6hf[8:1]/D6h[8:1],,,B8h[8:1]/Chf[8:1]/B4h[8:1],,,D2h[8:1]/A2hf[8:1]/D3h[8:1],,
{8}A6/B6/Cf/B3/A3/D6/E6/B5/B4/E4/D4/A5/E5/D5/A4,,,,
{16}D8h[8:1]/A7hf[8:1]/D7h[8:1],,,B1h[8:1]/Chf[8:1]/B5h[8:1],,,D3h[8:1]/A3hf[8:1]/D4h[8:1],,
{8}A7/B7/Cf/B2/A2/D8/E8/B8/B1/E2/D2/A8/E1/D1/A1,,,,
{16}3h[8:1]/5bh[8:1],,,5h[8:1]/7bh[8:1],,,1b/7,,
{32}2b/Cf,3,4,5,6,7,8,1,2,3,4,5,6,7,8,1,2,3,4,5,6,7,8,1,2,3,4,5,6,7,8,1,
{4}2/6h[2:1],,
{64}D1,E1,B8/B1,C,B5/B4,E5,D6/D4,A5/A4,D5f,
E
