&title=君往何处 (Quo Vadis)
&artist=M2U
&first=0.98
&des=Moi repeating
&lv_5=13+
&inote_5=(160)
,,,,{8}
6h[8:2]/5h[8:1],,,6h[4:1]/4h[8:1],,3h[8:1],5,,
3h[8:2]/4,,5h[8:1],3,,6h[8:1],4,,
7h[8:2]/5h[8:1],,,4h[8:1]/6h[4:1],,3h[8:1],5,,
3h[8:2]/4,,5h[8:1],3,
{16}
3,5,4,5,2b,,,,
{8}
2/8,3,5/2,3^8[8:1],,6,5,,
{16}
1/6,,2,8,1q5[8:1],,1,,7p3[8:1],,7,,1,,,,
{8}
2/1,8,4/7,6^1[8:1],,3,4,,
{16}
8/3,,1,7,8,6,8,7,8,7,8,7,8,,,,
{8}
8h[4:1]/6,,
{16}6,1,7,2,8-5[8:1],,,,2/8,,,,
4h[4:1]/2,,,,2,5,3,6,5-8[8:1],,,,6/5,,,,
7,1,7,1,6,1,5,2,6,3,7,4,6,5,6,5,
{8}7,6/8,5/1,4/2,3-8[8:1]*-6[8:1],,,,
{8}
1/7,6,7/2,3,4-1[8:1]/1,,3,,
8/2,3,2/7,6,5-8[8:1]/8,,6,,
1^4[8:1],1,4,5,6^1[8:1],6,1,2,
3h[8:1],
{16}7,2,8,1,8,2,
{8}1<4[4:1],,3,,
2,3,2/7,6,5-8[8:1]/8,,6,,
1/7,6,7/2,3,4-1[8:1]/1,,3,,
8^5[8:1],7,2^5[8:1],1,7-3[8:1],8,1>5[8:2],8,6pp3[8:3],,,,
{16},,8,1,2,,,,
{8}
7/4,8,1/2,3,1-6[8:1]/4-1[8:1],,,,
2/5,1,8/7,6,8-3[8:1]/5-8[8:1],,,,
1^6[8:1],1,4^1[8:1],4,7^4[8:1],7,2,2,
{16}1/4,,2,4,3,5,4,6,7-5[8:1]/5qq3[8:1],,,,,,,,
{8}
2/5,1,8/7,6,8-3[8:1]/5-8[8:1],,,,
7/4,8,1/2,3,1-6[8:1]/4-1[8:1],,,,
7^2[8:1],3,4,4,6^1[8:1],2,3,3,
5-8[8:1],,5-3[8:1]*v2[8:1],,5w1[8:1],,5b,,
7/3,7,6/1,6,7/3,7,6/1,6,
{16}
7/3,,6,6,3,7,2,8,1h[8:1],,4,5,6,2,3,4,
8h[8:1],,5,,4,4,6,5,8h[8:1],,1,2,3,8,7,6,
5,,4/7,,2,8,1,7,2h[8:1],,{24}1,8,7,6,,,5,,,
{16}
2/6,,2,,3/8,7,6,5,4/1,,1,,7/3,,2,,
{16}
2/6,,3,3,4,2,7,1,8h[8:1],,4,3,2,7,6,5,
1h[8:1],,4,,2,2,6,4,8h[8:1],,1,7,2,6,3,5,
4,,3/6,,7,1,8,2,1-4[8:1]*-6[8:1],,,,,,,,
{16}
7/5-1[8:1],,6,,4/5,,3,,2,1,2,,3/8,,6,5,
4-8[8:1]/2,,3,,4/5,,6,,7,1,7,,8/2,,3,,
4-6[8:1],,4,,7-3[8:1],,7,,2-8[8:1],,2,,
7>4[8:3],,6,,5,,,,,,,,8,2,1,2,1,,,,
2/4-8[8:1],,3,,5/4,,6,,7,8,7,,6/1,,3,4,
5-1[8:1]/7,,6,,5/4,,3,,2,8,2,,1/7,,6,,
5-8[8:1],,5,,1^4[8:1],,2,,6-2[8:1],,7,,6/5,,4,,
1/3-6[8:1],,2,,3/8^5[8:1],,7,,8-4[8:1]/2,,1,1,8,,2,,
2/4-1[8:1],,3,,4/5^2[8:1],,6,,8q4[8:1],7,6,,8,,6,,
7/5-8[8:1],,6,,5/4^7[8:1],,3,,1p5[8:1],2,3,,1,,3,,
2q6[8:1],,1,,2,,7p3[8:1],,8,,7,,1pp7[8:3],,8,,7,,,,,,,,5,4,6,5,8,,,,
7/5-8[8:1],,6,,5/4^7[8:1],,3,,1p5[8:1],2,3,,1,,3,,
2/4-1[8:1],,3,,4/5^2[8:1],,6,,8q4[8:1],7,6,,8,,6,,
7^4[8:1]/4,,8,,7,,2,,1^4[8:1]/4,,8,,1,,6,,
{8}7,6/8,5/1,4/2,3-8[8:1]*-6[8:1],,,,
7h[8:2],,,6h[4:1]/4h[8:1],,3h[8:1],5,,
3h[8:2]/4,,5h[8:1],3,4h[8:2],6h[8:1],,,
7h[8:2]/5h[8:1],,,4h[8:1]/6h[4:1],,3h[8:1],5,,
3h[8:2]/4,,5h[8:1],3,
{16}
3,5,4,5,2b,,,,
{8}
8-3[8:1],,2,2,4-7[8:1],5,5,,
6^3[8:1],3,2^7[8:1],2,7,6,5,,
1-6[8:1],,7,7,5-2[8:1],4,4,,
{16}
3h[8:1],,6,4,5,4,6,2,4,2,6,1,8,,,,
2/8h[8:1],,,,3/7h[8:1],,,6,6h[4:1]/4,,,,,,3,,
3/6,,4,,5,,6,,3h[8:1]/5h[4:1],,,,,,,,
6h[8:2]/4,,,,4,,,3,3h[8:1]/5h[8:2],,,,,,1,,
1/8,2,3,4,1,8,7,6,1-5[8:1],,,8,8,,,,
2,3,4,5,8,7,6,5,8,7,6,5,7,6,5,4,3,4,2,5,3,4,2,5,2,1,3,8,2,1,3,8,
2b,,1h[16:3]/8,7,6,5,4/1,,2b,,2h[16:3]/4,5,6,7,8/1,,
1/8,,2/7,,3/6,,4/5-8[8:1],,3/6,,2b,,2b,
,,,1s5[8:5],,,,,,,,4,,4,,3-7[8:1],,3,,
5z1[8:2],,,,,,8,,7-2[8:1],,,,3,,,,
5s1[8:5],,,,,,,,8,,8,,7-3[8:1],,7,,
4pp1[8:3],,,,,,1,,8^5[8:1]*^3[8:1],,,,,,,,
2/4,,3,,6,,7V58[8:2]/5,,,,3,,3,,2,,
1qq6[8:4]/2,,,,,,4,,4-1[8:1],,,,,,,,
7/5,,6,,5,,2/4,,3,,4,,5/4,,3/6,,
{32}
2<5[8:3]/7>4[8:3],3/6,4/5,,,,,,
{8},,,,2/7,,
{16}
7/5-8[8:1],,6,,5^2[8:1]/1,,3,,1q5[8:1],8,7,,7,,8,,
3/1-4[8:1],,2,,1^6[8:1]/5,,7,,5q1[8:1],4,3,,3,,4,,
5^3[8:1],,5,,8-4[8:1],,1-3[8:1],,8-6[8:1],,1-5[8:1],,8>6[8:3],,1,,8,,,,,,,,2,1,2,1,3,,,,
2/4-1[8:1],,3,,4^7[8:1]/8,,6,,8p4[8:1],1,2,,2,,1,,
6/8-5[8:1],,7,,8^3[8:1]/4,,2,,4p8[8:1],5,6,,6,,5,,
4-7[8:1],,4,,2,,2,,5<8[8:1],,6,,5/3,,4,,5-2[8:1],,4,,5/8-6[8:1],,1,,8-4[8:1],,5,5,8,,2,,
2/4-1[8:1],,3,,4^7[8:1]/8,,6,,8p4[8:1],1,2,,2,,1,,
6/8-5[8:1],,7,,8^3[8:1]/4,,2,,4p8[8:1],5,6,,6,,5,,
4^6[8:1],,4,,1-5[8:1],,8-6[8:1],,1-3[8:1],,8-4[8:1],,1<3[8:3],,8,,1,,,,,,,,7,8,7,8,6,,,,
7/5-8[8:1],,6,,5^2[8:1]/1,,3,,1q5[8:1],8,7,,7,,8,,
3/1-4[8:1],,2,,1^6[8:1]/5,,7,,5q1[8:1],4,3,,3,,4,,
8-6[8:1]/5,,7,,8/1,,2,,3/4-1[8:1],,5,,6/4,,7,,8/1,,2,4,3,7,5,6,8/2qq5[4:1],,,,,,
4,5,6V48[4:1],,6,,8-6[8:1],,1,,2-6[8:1],,3,,4-1[8:1],,4-7[8:1],,4-2[8:1],,4-6[8:1],,4-8[8:1],,4,,4,,,,2b/6b,,
