&title=Unmei?
&artist=恋太郎ファミリー
&first=0
&des=reflectW
&lv_5=12
&inote_5=(160)
{1},
{8}3h[4:1]/5h[4:1],,,,1h[4:1]/7h[4:1],,,,
{8}4h[4:1]/6h[4:1],,,,2-7[8:1]/8,,,,
{8}2h[4:1]/8h[4:1],,,,4h[4:1]/6h[4:1],,,,
{8}1h[4:1]/7h[4:1],,,,3-6[8:1]/5,,,,
{12}7h[4:1],,,4,4,4,3h[4:1]/5,,,1,,,
{12}4h[4:1]/5,,,6,6,6,7h[4:1]/5,,,8,,,
{12}5h[4:1]/3,,,1,1,1,8/2h[4:1],,,3,,,
{8}4b^1[8:1]/5b^8[8:1],,4bqq5[16:5]/5bpp4[16:5],,4b/5b,,,,
{4}1-4[8:1],4-1[8:1],1-4[8:1],,
{4}8-5[8:1],5-8[8:1],8-5[8:1],,
{4}2-5[8:1],5-2[8:1],2-5[8:1],,
{4}7-4[8:1],4-7[8:1],7-4[8:1],,
{8}1^4[8:1],,4^1[8:1],,1-5[8:1],,,,
{8}8^5[8:1],,5^8[8:1],,8-4[8:1],,,,
{8}3h[4:1],,5h[4:1],,4h[4:1],,8,7,
{8}6,5,2,3,4w8[8:1],,,,
{4}2-5[8:1],5-1[8:1],1-4[8:1],4-8[8:1],
{4}8-5[8:1],5-1[8:1],1-4[8:1]*-6[8:1],,
{4}7-4[8:1],4-8[8:1],8-5[8:1],5-1[8:1],
{4}1-4[8:1],4-8[8:1],8-5[8:1]*-3[8:1],,
{8}1^4[8:1],,4-1[8:1],,1^6[8:1],,6-1[8:1],,
{8}1-5[8:1],,5-1[8:1],,1w5[8:1],,,,
{8}3h[4:1],,7h[4:1],,1h[4:1],,5,6,
{8}7,8,4pp4[4:1]*qq4[4:1],35,4,,,,
{16}4-7[8:1]/5,,,,45,,,,5/3h[16:3],,,1h[16:3],,,2,,
{16}8,,1,,7,,3,,6-1[8:1],5,7,4,,,,,
{16}5-8[8:1]/6-8[8:1],,,,56,,,,5/2h[16:3],,,4h[16:3],,,3,,
{16}6,5,6,,47,,8,,3,4,2,5,,,47,,
{16}3v6[8:1]/6v3[8:1],,,,36,,,,2^7[8:1],4,2,4,2,,,,
{16}3,4,3,,6,5,6,,2,4,3,5,4,6,5,7,
{16}1,,5pp5[16:3]*qq5[16:3],4,6,,5,,,,1-5[8:1],,7,,1,,
{16},,47,,2,1,2,,8h[16:3],,,3h[16:3],,,5,,
{8}6h[4:1]/4-1[8:1],,,,6h[4:1]/4-1[8:1],,,,
{8}5h[4:1]/4-1[8:1],,,,5h[4:1]/4-1[8:1],,,,
{8}4-1[8:1]/5,,45,,4-1[8:1]/6,,46,,
{8}4-1[8:1]/7,,47,,4-1[8:1]/8,,48,,
{12}3h[12:1],4h[12:1],2h[12:1],6h[12:1],5h[12:1],7h[12:1],1,,2,5h[12:1],4h[12:1],6h[12:1],
{12}3,,7,8-4[8:1],,1,{8}8b,,1>5[4:1],,
{8}5qq2[16:5],,8,7,6h[4:1],,3V14[4:1],4,
{8}4pp3[16:5],,6,7,8h[4:1],,1-4[8:1],1,
{8}5-8[8:1],5,1<4[4:1],2,3,,1pp1[4:1],1,
{8}1,,8qq8[4:1],8,8,,,3,
{8}3h[4:1],,4qq1[16:5],5,6,,,7,
{8}7h[4:1],,8-5[8:1],1,2,,2v3[8:1]/6v7[8:1],,
{8}2b/6b,,2v3[8:1]/6v7[8:1],,2b/6b,,4-1[8:1],7,
{8}4,,2v5[8:1]/6-1[8:1],15,26,,{16}3-8[8:1],4,3,4,
{8}3,,1>4[8:1],6,1qq6[16:6],,5^2[8:1],4,
{8}5,,8<5[8:1],3,8pp3[16:6],,4^7[8:1],5,
{8}4,,1-4[8:1],6,1V75[16:3]*p5[16:3],,,,
{8}3qq4[4:1],4,3b,,5pp4[4:1],4,5b,,
{8}3h[4:1],,1-4[8:1],8,7h[4:1],,5h[4:1],,
{8}8h[4:1],,1-4[8:1],2,3h[4:1],,6h[4:1],,
{8}4h[4:1],,5-8[8:1],6,7h[4:1],,1h[4:1],,
{8}8h[4:1],,1p5[8:1],2,1<2[4:1]/3,,{32},,,,,,,,
{8}7-5[8:1],8-4[8:1],7,8,1-5[8:1],2-4[8:1],1,2,
{8}6,7,8,1,2>5[8:1]/5^8[8:1],,,,
{8}3-1[8:1],4-8[8:1],3,4,5-1[8:1],6-8[8:1],5,6,
{8}2,3,4,5,6h[4:1]/1,,8-4[8:1],,
{8}7,6,5,4,5pp4[4:1]/3qq4[4:1],,3b/5b,,
