&title=Angry Bird
&artist=Level 1-1
&first=0.2
&des=Angry Zhong
&des_7=Angry Zhong
&lv_7=1-1
&inote_7=
(140){4}7v4[7.6071##0.0536]/1v4[7.6071##0.0536],,,,,,,,,,,,,,{16}A8,
D8,A7,D7,{4}A6h[16:11],
{16},,,,,,,{32}E7,E8,E1,A1,D2,A2,D3,A3,D4,A4,D5,A5,D6,A6,D7,A7,D8,A8,
D1,A1,D2,A2,D3/Ch[32:11]/6-3[0.3214##0.3214]*q3[0.3214##0.3214]/5-8>1-4[0.3214##0.3214],A3,D4,A4,D5,A5,E7/D6/E3,A6,{8},{32}E5,8b/1b/2b/7bxh/D5f,{8},,,,,,,,,{16}E6,
B6f,A6,D7f,E6,
B6f,A6,D7f,E6,B6f,A6,{8}D7f,{1},{16}7b/8b/1b/2b/6bh[16:1],
{8},,,{16}8b/1b/2b/3b/7bh[16:1],
,,,,,,,,,B3,{32},,,E8/A7h[8:7]/D7h[8:7]/A6h[8:7]/D6h[8:7]/A5h[8:7]/D8h[8:7]/A8h[8:7]/D1h[8:7]/D5h[8:7]/A1h[8:7]/D2h[8:7]/A2h[8:7]/D3h[8:7]/A3h[8:7]/D4h[8:7]/A4h[8:7],{16},E6,{32}E4,{16},{32}E2,
,E8,{16},E6,E4,{32}E2,{16},{32}E7f,,,,C,,,,E3,
E
