&title=Nocturne
&artist=Lime
&first=0.36
&des=SnowFox
&lv_5=14
&inote_5=(188)
{1}
,,
{4}1>5[4:2],,,6h[4:3],,,{8}3h[8:4],,,,4,,5h[8:3]/3h[8:3],,,,,,3pp5[4:2],,,,,,7qq5[4:2],,,,,,1h[8:4],,,,8,,3pp1[4:2]/6,,,,,,
8b,7,6,45,3,2,1/8qq1[4:2],8,2,,3,,3b-5[8:1]b,,5,6b-2[8:1]b,,2,1bh[8:3],,,7,8-4[8:1],1,2b/8b,,,7,8-4[8:1],1,2/8,,3h[4:1],,5,5,2b,1,8,7-3[8:1]/3,,37,1bs5[4:2]b,,,,,{16}D7,A7,D8,,A4,,A3,,A2,,A1,,A8/E8,,,,,,,,,,,,,,
A6/D6/A5/D5/A4/D4/A3/E6/B5/E5f/B4/E4,,,,{4},,8h[8:6],,,{8}3h[8:2],,6h[8:4],,,,1h[4:1],,{16}E5,E4,E3,E2,E1,E8,E7,E6,{8}2bx,,24,,24,,84,,75,,75,,6,6,2,2,8,8,4h[4:1],,{32}A1/D2f,D1,A8,D8,A7,D7,A6,D6,{8}3-5[8:1],,
3b/8b,,7h[4:1],,5,5,6-4[8:1],,2h[4:1],,4,3,5,4,6h[4:1],,{16}5,4,3,2,18,7,6,5,{8}2,2,4,{24}1x,2x,3x,{8}4h[4:1]/8x,,7,7,5,6,3>8[4:1],,8<5[4:1],,5>2[4:1],,1,8,7h[4:1],,1h[4:1],,3pp6[4:2],,,1,1-3[8:1],,
1b,,7h[4:1],,4,4,8-6[8:1],,2h[4:1],,5,5,2,4,3h[4:1],,{16}4,5,6,7,81,2,3,4,{8}7,7,5,{24}8x,7x,6x,5hx[4:1]/1b,,,,,,{8}2,3,5,6,4,7,7,,1-5[8:1],7,1<6[8:1],,1>4[8:1],,1w5[8:1],,1b,,{16}3,7,3,7,2,6,2,6,{8}1b-6[8:1]b,,1x,3b-8[8:1]b,,3x,5b-2[8:1]b,,5x,7b-4[8:1]b,,1/7x,2b,3,3h[4:1],,5,4,6,5,4,3,8,7,6h[4:1]/2,,{12}3,7,5,{8}1<6[4:1],,6pp5[16:5],,4,,{12}2,2,4,{8}3,8,1h[8:6]/7,,6,,5,,{16}6,2,6,2,7,3,7,3,{8}8b-3[8:1]b,,8x,4b-7[8:1]b,,4x,1<6[8:1],,5>2[8:1]/1,,85,7,6b/1,5,5h[4:1],,4,5,3,4,5,6,1,2,37,37,2h[4:1]/6,,{16}7,6,5,4,1x,8,7,6,5,4,3,2,18,,7,,62,,62,,3/7h[4:1],,,,2,3,4,5,8x,1,2,3,4,5,6,7,84,1,2,3,{4}1b-7-2-6-3-5-3-6-2[4:8]/4b,,,,,,,,,8bxh[4:3],,,{4}1b-7-2-6-3-5-3-6-2[4:8]b,,,,,,,,,{8}8,8,{32}3x,4x,5x,6x,7x,8x,1x,2x,3x,4x,5x,6x,7x,8x,1x,2x,{8}3bx/Cf,,4,3,5,6,2h[4:1]/7,,5,6,3,4,5/8h[4:1],,1,2,7,6,4/5h[4:1],,3,2,8,7,{16}4,6,4,6,4,6,3,5,3,5,3,5,2,4,3,5,4,6,5,7,4x,3,2,1,8bh[4:3]/4b>5[4:2]b,,,,{4},,,{8}2x/B4/E4f/B3,,7x/B6/E6f/B5,,1b/8b<5[8:1],,8/3-7[8:1],,36,,8/1>4[8:1],,1/6-2[8:1],,63,,4-1[8:1]/8-5[8:1],,84,,6,2,7v5[8:1]/3v1[8:1],,73,,2,6,8-4[8:1]/4,,1<6[8:1]/8,2,3-7[8:1]/1,4,35,,{16}86,1,2,3,{8}4/8h[4:1],,3,56,3>8[8:1]/7<4[8:1],,,,2-5[8:1],,2b/6b-2[8:1],,4b/6b,,3b/1b,28,7h[4:1]/1,,{16}1,2,3,4,5/,7,6,5,8bx/4x,3,2,1,8x/4bx,7,6,5,4x/1x,,25,,3h[4:1]/6,,,,8,7,6,5,4x/2x,1,8,7,6,5,4,3,2x/8x,7,6,5,1bh[4:1]/4b,,,,{8}8>3[8:1],7,6/8qq6[16:4],7,8x/3x,,2h[4:1],{24}E7,E8,E1,E2,,,,,,{8}8bx/2bx,,1<6[8:1],2,3/1pp3[16:4],2,1x/6x,,E8/B8/E1f,,E4/B4/E5f,,8b/1b>4[8:1],,1/6-2[8:1],,63,,1/8<5[8:1],,8/3-7[8:1],,36,,5-8[8:1]/1-4[8:1],,15,,3,7,2v4[8:1]/6v8[8:1],,26,,7,3,1-5[8:1]/5,,8>3[8:1]/1,7,6-2[8:1]/8,5,64,,{16}13,8,7,6,{8}5/1h[4:1],,6,43,6<1[8:1]/2>5[8:1],,,,4,5,6,5,4,7,2b/8b,37,4/6h[4:1],,5V31[4:1],,1V75[4:1],,5V31[4:1],,1,,8h[4:1],,1,2/6h[4:1],,2,7/3>8[8:1],,7<4[8:1],,3-6[8:1]b,,3b/8b,,7,6,5,4,3bx/1bx,,8bx/6bx,,4bx/5bx,,{16}1,8,1,8,1,8,{24}2,3,4,{16}57,,46,,3/5w1[4:1]b,,,,,,,,,,,,{16}7b,,5,6,5,,8b,,4,5,4,,1b,,3,4,3,,8bh[4:1],,
,,2,,3b/7b,,26,,1-4[8:1]/5,,,,6,,,,8-5[8:1],,,,4,,,,2,,2,,1h[16:2]/7h[8:1],,,,{12}26,37,48,5>2[8:1]/1<6[8:1],,,51,,,E3/B2/E7/B6,,,{12}6x,3,5,{8}4,8,1h[8:4]/7,,6,,5,,{16}5,4,6,3,7,2,8,1,7b,,3,4,2,,8b,,2,4,3,,6b-1[8:1],,,,64,,,,2,,5,,3h[4:1]b,,,,5,4,6,5,7<8[8:3],4,8,3,7b,,,,{8},4,3,2,1bx/5bxs1<6[4:4]b,,,,,,,,,,,,8bx/4bxz8>3[4:4]b,,,,,,,,,,6,6,4b/5b,36,27,{24}1,8,2,1h[8:1],,,{8}4,2b/6b,17,28,37,{16}6,5,7h[8:1],,8,7,1,6,2,5,{24}3,4,3,{16}4,2,5,1,{24}6b,7,8,12,3,4,6b,7,8,12,3,4,6b,7,8,12,3,4,6bxpp4>5[4:21]b/E5/D5/A5f/E6,,,,,,,,,,,,{4},,,,,,,,,,,,,,,,,,,,,,4>8[4:2],,,7h[4:2],,,{8}46,,,35,,,2/4<7[4:1],,,,,,1-5[4:1]/8,,,,,,1-5[4:1]/8,,,,,,E7/A7,,,E3/A2,,,E6/B5/B4/E4,,,,,,A6,A7,A8,A1,A2,A3,
