&title=∀NSWER
&artist=individuals
&first=0.04
&des=Hatsune
&lv_5=13+
&inote_5=(178)
{1},
{16},,,,,,,,,,3,3,4,,,,
{16}25,,,,7,,4,,6,,3,,3h[8:1],,4,,
{16}4h[8:1],,5,,5h[8:1],,6,,6h[8:1],,7,,8-4[8:1],,1,,
{16}2,,,,2,,3,,5,,6,,6h[8:1],,5,,
{16}5h[8:1],,4,,4h[8:1],,3,,3h[8:1],,8,8,1,,2,,
{16}35,,,,7,,4,,6,,3,,3h[8:1],,2,,
{16}2h[8:1],,1,,1h[8:1],,8,,8h[8:1],,6,,5-1[8:1],,4,,
{16}3,,,,2,,3,,5,,6,,6h[8:1],,4,,
{16}4h[8:1],,8,,8V64[4:1],,,,1,,1,,2,,2,,
{16}5h[8:2]/3h[8:2],,,,,,3,,3,,5h[8:2],,,,2,,
{16}2,,4h[8:2],,,,1>4[4:1],,,,6,,6,,6,,
{16}5h[8:2]/7h[8:2],,,,,,6,,6,,4h[8:2],,,,6h[8:2],,
{16},,3h[8:2],,,,5h[4:1],,,,3,,3,,4,,
{16}5h[8:2]/2h[8:2],,,,,,3,,3,,5h[8:2],,,,2,,
{16}2,,4h[8:2],,,,1>4[4:1],,,,6,,6,,6,,
{16}5h[8:2]/7h[8:2],,,,,,6,,6,,4h[8:2],,,,6h[8:2],,
{16},,2h[8:2],,,,1,,1-5[8:1],,,,1b/8b,,,,
{16}7h[4:2],,,,5,,4,,3,,,,2/4-8[8:1],,,,
{16}24,,,,7-5[8:1]/5-1[8:1],,,,75,,,,34,,,,
{16}2h[4:2],,,,4,,4,,5,,6,,3/7-2[8:1],,,,
{16}3-6[8:1],,,,8-4[8:1],,,,2-5[8:1],,,,6,,,,
{16}7h[4:2],,,,6,,6,,8,,1,,2-5[8:1]/8-5[8:1],,,,
{16}82,,,,7-3[8:1]/1-5[8:1],,,,17,,,,26,,,,
{16}3h[4:1],,,,6-1[8:1],,6,,2-6[8:1],,2,,8,,,,
{16}8-6[8:1]/1-5[8:1],,,,1-3[8:1]/8-4[8:1],,,,18,,,,1b/8b,,,,
{16}3<2[8:16],,,,,,2h[4:1],,,,,,,,2,,
{16}2,,2,,,,3,,3,,3,,,,4,,
{16}4,,4,,,,5,,,,46,,,,,,
{16}5,,5-8[8:4],,,,4,,4,,5,,,,5,,
{16}5>8[4:6],,,,,,7h[4:1],,,,,,,,7,,
{16}7,,7,,,,6,,6,,6,,,,5,,
{16}5,,5,,,,4,,,,53,,,,,,
{16}2,,2V41[8:9],,,,6,,6,,6,,,,5,,
{1}5-8[4:1],
{16},,27,,27,,27,,27,,27,,2b-5[8:1]/7b-4[8:1],,,,
{16}27,,,,2,4,3,,46,,8,,1/2-5[8:1],,3,,
{16}82,,,,7,5,6,,53,,2,,1/8,,7,,
{24}2/6h[4:1],3,4,{16}5-7[8:1]*-1[8:1],,,,,,,,,,5,,54,,
{16}3,,34,,6,,64,,2,1,2,1,2-5[8:1],,,,
{16}82,,,,7,5,6,,53,,1,,8/7-4[8:1],,6,,
{16}17,,,,2,4,3,,46,,7,,8/1,,2,,
{24}7/3h[4:1],6,5,{16}4-2[8:1]*-8[8:1],,,,,,,,,,4,,45,,
{16}6,,65,,3,,35,,7,8,7,8,16,,,,
{16}54,,,,3,4,2,,2,4,3,,3/6-1[8:1],,,,
{16}6/2-5[8:1],,,,2/6-2[8:1],,,,6/8-4[8:1]*-3[8:1],,,,8,,,,
{16}26,,,,6,5,7,,7,5,6,,6/3-8[8:1],,,,
{16}3/7-3[8:1],,,,7/4pp5[4:1]*V25[4:1],,,,,,,,,,,,
{16}17,,,,2,4,3,,46,,8,,1/2-5[8:1],,3,,
{16}82,,,,7,5,6,,54,,3,,12,,8,,
{24}6,5,4,{16}3h[8:2]/2V48[8:2],,,,,,,,,,,,1,,
{16}17,,6,,35,,2,7,1-5[8:1],8,2,,1>7[8:7],,,,
{1}1b,
{16},,36,,36,,27,,27,,81,,8-4[8:1]/1-5[8:1],,,,
{16}8b/1b,,,,3,,4,,5,,46,,7,,3,,
{16}3h[8:1],,7,,4,,4h[8:1],,7,,81,,7v4[8:1],,,,
{16},,,,6,,5,,4,,35,,2,,6,,
{16}6h[8:1],,2,,5,,5h[8:1],,2,,81,,3v6[8:1]*-5[8:1],,,,
{16},,,,3,,4,,5,,64,,7,,3,,
{16}3h[8:1],,7,,4,,4h[8:1],,8,,12,,8v3[8:1]*-5[8:1],,,,
{16},,,,6,,5,,4,,35,,2,,5,,
{16}5,,3,,72,,8,,1,,28,,1w5[8:1],,,,
{16}1b,,,,3,5,4,5,3,4,2h[4:1],,1-5[8:1],,1,,
{16}3b,,,,6,4,5,4,6,5,7h[4:1],,8v3[8:1],,8,,
{16}6b,,,,4,6,3,4,2h[4:1],,1-5[8:1],,7-3[8:1],,1,,
{16}7,,,,5,4,6,5,7h[4:1],,8-3[8:1],,3s7[4:3],,8,,
{1}4h[2:1],
{16},,7,8,7,8,{32}6,,,,{16}2,1,2,1,{32}3,,,,{16}7,8,
{16}7,8,{32}6-2[8:1],5,4,3,2,1,8,7,{16}6/4-7[8:1]*-1[8:1],,,,4b,,,,,,
{16}82,,,,7,5,6,,53,,1,,8/7-4[8:1],,6,,
{16}17,,,,2,4,3,,46,,7,,8/1>4[8:1],,2,,
{24}8/1,7,6,{16}5-2[8:1]*-1[8:1],,,,5b,,,,,,4,,35,,
{16}6,,74,,2,,16,,7,8,6,1,7-4[8:1],,,,
{16}17,,,,2,4,3,,46,,8,,1/2-5[8:1],,3,,
{16}82,,,,7,5,6,,53,,2,,7<4[8:1]/1,,6,,
{24}3/7,2,1,{16}8-3[8:1]*-4[8:1],,,,8b,,,,,,5,,64,,
{16}3,,25,,7,,84,,2,7,1,8,2b/7b,,,,
{16}4h[4:1]/5,,,,5,4,6,,6,4,5,,5<8[8:1],4,6,,
{16}5>2[8:1]/2,,4,,1/5-1[8:1],,7,,1-6[8:1]*-4[8:1]/5,,,,,,,,
{16}37,,,,3,4,2,,2,4,3,,3-8[8:1],4,2,,
{16}7-3[8:1],,7,,4p5[4:1]*>5[4:1],,4,,,,,,,,,,
{16}7/1,,,,3,5,4,,5/6-1[8:1],,7,,3/6>3[8:1],,5,,
{16}67,,,,6,4,5,,4/2-6[8:1],,1,,25,,4,,
{24}37,48,51,{16}2V48[8:2]/6-3[8:1],,,,,,,,,,,,5,,
{16}52,,3,,84,,6,2,8-4[8:1],4,6,,8<2[8:7],,,,
{1}8b,
{16},,87,,34,,56,,12,,34,,1s5[16:3]/7,,,,
{1}1b/5b<4[8:15],,,
E
