&title=Selenadia
&artist=Lime
&first=0
&des=⊿TRiEDGE
&lv_5=14+
&inote_5=(227){4},,,,,,{2}4xh[2:1],
{1}8x<1[4:11],
E2,
E5,
{2}E8,{8}E7,E5,E6,E4,
{2}5xh[2:1],E5,
3xh[2:1],E8,
{24}8b-5-3<4-6p2[4:13]`1b-4-6>5-3q7b[4:13],2b/7b,6b/3b,4b/5b,{1},,,{4},,,{16},{48},{4}3,
3,3-5[8:1],{8}3/7,7,
{4}6,6,6-4[8:1],{8}2/6,2,
{4}3,3,3h[4:1],{32}E1,E2,E3,E4,E5,E6,E7,E8,
{1}E1f/4x<2[2:1],
{4}8x-6[8:1],{8}3/8,3x-1[8:1],,6/3,{4}6x-4[8:1],
{8}1/6,1x,,4,3/5,2/6,{4}1/7,
7x-5[8:1],{8}7/2,2x-8[8:1],,7/2,6x,6x,
,1x>4[8:1],{16},,5/1-5[8:1],6,7,8,{8}1,{4}3,
1x-3[8:1],{8}6/1,6x-8[8:1],,3/6,{4}3x-5[8:1],
{8}8/3,8x,,5,6/4,7/3,{4}8/2,
2x-4[8:1],{8}2/7,7x-1[8:1],,2/7,3x,3x,
,8x<5[8:1],{16},,4/8-4[8:1],3,2,1,{8}8,{4}6,
{8}8/7,8b/7b,,1/2,{4}1b/2b,{8}8/6,8b/6b,
,1/3,{4}1b/3b,{32}E2,E3,E4,E5,E6,E7,E8,E1,{4}C,
3/7V51[4:3],3,3,3,
3,3,2/8,{8}2/8,7/1,
{4}6/8>2V46-3[2:3],6,6,6,
7,7,7,7,
8h[4:1],{8}2-5[8:1],1,{4}2,6,
4h[4:1],{8}5-8[8:1],3,{4}5,1,
7h[4:1],{8}1,8,1-5[8:1],8,{4}1,
{12}7b,5,6,2b,4,3,8b,5,6,1b,4,3,
{4}7-4[4:1],2,2,2,
5/3-8[4:1],5,5,5,
3/6pp8[8:3],3,3,3,
7/2pp4[8:3],7,7,7,
6h[4:1],{8}3-1[8:1],5,{4}3,7h[4:1],
{8}8-4[8:1],6,{4}8,{8}6,6,3,5,
{16}1,8,2,7,3,6,4,6,4,3,2,1,8-4[8:1],7,6,5,
{4}4b/8b,2h[4:1],4h[4:1],3h[4:1],
{8}5,{16}2,1,{8}2,4/5,{16}7,8,{8}7,5/4,{16}2,1,
{4}2V46[4:1],{8}2/8,8,8,7/5,{4}6-3b[8:1]/2-7b[8:1],
{8}2/6<3[2:1],,,5,{4}5-8[8:1],5,
{16}4,3,2,1,7,6,5,4,1,2,3,4,{4}5/8b,
{16}6,5,{8}6,{16}3,4,{8}3,{16}7,8,7,8,{4}7<4[4:1],
4>1[4:1],1<6[4:1],6V48[4:1],2,
2-5[8:1]*-6[8:1],2,7-5[8:1]/4-8[8:1],4/7,
{8}1-5[8:1],8-6[8:1],1,8,{16}1b-5b[8:1],2,3,4,{4}5/1b,
{8}3,{16}7,8,{8}7,5/4,{16}2,1,{8}2,4/5,{16}7,8,
{4}7V53[4:1],{8}7/1,1,1,2/4,{4}3-6b[8:1]/7-2b[8:1],
{8}7/3>6[2:1],,,4,{4}4-1[8:1],4,
{16}5,6,7,8,2,3,4,5,8,7,6,5,{4}4/1b,
{16}3,4,{8}3,{16}6,5,{8}6,{16}2,1,2,1,{4}2>5[4:1],
5<8[4:1],8>3[4:1],3-5[8:1],7,
{8}6,6,5/7,5/7,6/4,6/4,5/3,5/3,
{16}2,4,2,4,1,3,1,3,{32}1,8,7,6,5,4,3,2,{4}1-5[8:1],
{1}1bp7[4:11]/5bp3[4:11],
,,,{8}5/3h[8:3],
,,6h[8:3],,,{4}4pp1>2[2:3],
{1},,{12}2b,
4,3,7b,5,6,1b,5,3,8b,4,6,
{8}1bx-6[8:1],1,,7bx-4[8:1],{4}7,{8}2bx-5[8:1],2,
,8bx-3[8:1],{4}8,{8}4bx-1[8:1],4,,6bx-3[8:1],
{4}6,{8}2bx-7[8:1],2,,8bx-5[8:1],{4}8,
{8}1b>4[8:1],1b,,6b,6b,{24}4,5,4,5,4,5,4,,,{4}6/3,
{16}8b,7,6,5,1,8,7,6,5,4,3,2,
1/5b,6,7,8,4,5,6,7,8,1,2,3,8b/4,7,6,5,
1,2,3,4,5,6,7,8,4b/1,5,6,7,2,1,8,7,
6,5,4,3,8b/2,7,6,5,1,8,7,6,3,2,1,8,
{1}3bqq4[2:3]/7bqq8[2:3],
{12},,,,,,,,,,,,1b,
1b,1b,1b,1b,1b,1b,1b,1b,1bw5b[8:1],1b,1b,
{2}1b,3h[2:1],
{4}8h[4:1],{16}5,4/7,3/6,2/5,{4}4b/1bs5[4:1],1,
7h[4:1],{8}4,7,3,6,2,5,
{4}1h[4:1],{16}4,2/5,3/6,4/7,{4}8b/5b-1[8:1],5,
{16}8,7,6,5,2,3,4,5,6,7,8,1,7,6,5,4,
{4}1h[4:1],{16}4,5/2,6/3,7/4,{4}5b/8bz4[4:1],8,
2h[4:1],{8}5,5,3,3h[4:1],,8h[8:3],
{16},,,,5,7/4,6/3,5/2,{4}1b/4b-8[8:1],{8}4,1,
{4}2-5[8:1]*-6[8:1],2,8-5[8:1]*-3[8:1],8,
4h[4:1],{16}8,3/7,2/6,1/5,{4}4b/8b-4b[8:1],8,
5h[4:1],{16}8,1,2,3,{32}8,1,2,3,4,5,6,7,{4}8b/1b,
{8}2/5,{24}3x,4x,3x,{8}4x,1/8,{24}6x,5x,6x,5x,,,{4}E1f/4>5[2:1],
,,,8-4b[8:1],
8b,{16}1,2,3,4,7,6,5,4,2,3,4,5,
{4}8h[4:1],{8}3,6,2,5,1,4,
{4}8h[4:1],{16}4,1/5,2/6,3/7,{4}4b/8b,1/2h[4:1],
{16}1,8,7,6,5/4,3,2,1,7/8,1,2,3,4/5,6,7,8,
{4}1b/2b-4[8:1],{8}2/5,5,{4}5-7[8:1],5/3,
8/1-4[8:1],{8}1/6,6,{4}6-1[8:1],6/3,
2-6[8:1],{8}2/8,8,{4}8-4[8:1],8/3,
{8}2-5[8:1],2,2/7-4[8:1],7,{4}7/1-4[8:1]*-6[8:1],1b,
{8}3/5,3/5,4/6,4/6,3/7,3/7,2/8,2/8,
{16}1,7,2,6,3,5,4,8,2,7,3,6,4,5,3,5,
2,6,2,6,1,7,1,7,8,8,1,7,8-4[8:1],8,1,7,
{2}8b,8h[2:1],
{32}4b,7/3,6/2,5/1,{8}8/4-1-6-3-8-5[8:25],{1},,,{4},,,{8}4,
4/6h[4:1],,2,{4}4/2-5[8:1],A2f/D3/E3/5>7b[2:3],
{1},{4},,,{32}E1,
E2,E3,E4,E5,E6,E7,E8,
{1}E1f/4x<2[2:1],
{8}8x-6[8:1],1,2,3x-1[8:1],4,5,6x-4[8:1],7,
8,1x,1,4,3/5,2/6,{4}1/7,
{8}7x-5[8:1],8,1,2x-8[8:1],3,4,5x,5x,
,8/1x>4[8:1],{16},,5/1-5[8:1],6,7,8,{8}1,{4}3,
{8}1x-4[8:1],8,7,6x-1[8:1],5,4,3x-6[8:1],2,
1,8x,8,5,6/4,7/3,{4}8/2,
{8}2x-5[8:1],1,8,7x-2[8:1],6,5,4x-7[8:1],3,
2,1x,1,5,{32}5,4,3,2,1,8,7,6,{4}1b/5b,
{16}2b,3,4,5,1,2,3,4,2,3,4,5,6,7,8,1,
7b/2,6,5,4,8,7,6,5,7,6,5,4,3,2,1,8,
2b/7,3,4,5,1,2,3,4,2/5,3,4,5,6/1,7,8,1,
2/7b,6,5,4,8,7,6,5,7/4,6,5,4,3/8,2,1,8,
7/2b,3,4,5,8,7,6,5,{24}1b,2,3,4,5,6,7,8,1,2,3,4,
{16}5/8b,7,6,5,2,3,4,5,{24}1b,8,7,6,5,4,3,2,1,8,7,6,
5/1b,2,3,4,5,6,7,8,1,2,3,4,5/8b,7,6,5,4,3,2,1,8,7,6,5,
4/8b,1,2,3,4,5,1b,8,7,6,5,4,{32}2b,3,4,5,6,7,8,1,7b/2b,6,5,4,3,2,1,8,
{8}2b/7b,2b/7b,,5b/6b,{4}5b/6b,{8}3b/4b,3b/4b,
,1b/8b,{4}1b/8b,{8}6b/5b,1b/2b,3b/4b,8b/7b,
E
