&title=HEARTACHE
&artist=BEMANI Sound Team "HuΣeR" feat.ゆきまめ
&first=1.09
&des=心碎前一秒
&lv_5=12+
&lv_6=13+
&inote_1=(90)
{1}
,
{8}
1,
&inote_5=(90)
{1}
,
{8}6h[24:3]/4h[24:5],,B6,,5h[24:5]/3h[8:1],,B3,,4h[24:5]/7h[8:1],,B7,,6h[8:1]/1-4[8:1],,,,
{8}7h[24:3],{24}E5,,A6,B6,,,,,,{8}3h[24:3],{24}E6,,A4,B4,,,,,,{8}5-8[8:1],3,,,
{12}A4/B4,A6/B6,A2/B2,A5/B5,B1/A1,A7/B7,
{24}2,,2,6,,6,4x,,,3/5h[12:1],,,3,,3,7,,7-5[8:1],5x,,5,,,,,,3h[8:1],,,5x,4,,7h[8:1],,,5x,6,,A1,B1,,7x,3,,A8,B8,,2x<6[16:5],6h[4:1],,,,,,,,,,,,5p4[8:3],,,,,,4x,,,,,,3hx[24:3],,,,,,6xh[8:1]/2xh[8:1],,,,,,1p8b[4:1]/5h[8:1],,,,,,Cf,,,,,,B6/E6,,,,,,1x,,1,4pp5[4:1],,4,2,,,,,,3x,,,,,,2xh[8:1],,,,,,8,,8,5,,5,7-4[8:1],,,3-8[8:1],,,
{16},,,,6p3b[8:3],,,,3,,,,2>6[4:1],,,,6xp1[4:1],,,,8,,,,7x,,6,,2/5h[16:1],,E3,,7/4h[16:1],,E7,,
{24}2h[24:2],,,4,,4,3x,,3,7,,7,5,,5,6^1[8:1],,6,2x,,,,,,3h[24:2],,,1,,1,2x,,2,7,,7,8-5[8:1],,8,6-1[8:1],,6,,,,,,,4>8[4:1],,,,,,8x,,,7,,,6qq5[16:3],,,,,,1x,,,2,,,3b/A6f/D6/D7/E7/E6/B6,,,,,,8b>3[16:3]/A5f/D5/D6/E6/E5/B5,,,,,,2h[16:3],,,,,,
{48}A1,D1,A8,D8,A7,D7,A6,D6,A5,D5,A4,D4,
{16}A3/A2/D3f,,8bh[8:1],,
{24},,5x,6,,6,5x,,5,6,,6x,5,,5,6,,,
{16}1b/8,,3/6b,,
{32}5h[16:1]/4h[16:1],,,,3x/6x,,4,,5,,3x/6x,,4,,5,,3bxh[16:1]/6bxh[16:1],,,,,,,,
{16}7b/3,,1bh[8:1]/5,,
{24},,4x,3,,3,4x,,,25,,3x,4,,4,3,,,
{16}7b,,2h[16:1]/B6/B5,,7b,,2h[16:1]/B6/B5,,7b>5[4:1],,Ch[16:1],,,,,,Ch[16:1],,,,,,,,5v7[8:1]/1v3[8:1],,,,1xs5s1[2:1],,,,,,,,,,,,,,,,
{24}7b-5[12:1],,8,4,,,75,,,B4/B3,,,2-4[12:1],,1,5,,,24,,,C,,,8-4[8:1],,5,1,,,4/8b,,,
{24}3x,,3,4<2[4:1],,4,2,,2,,,,,,,3v2[8:1],,3,4,,,3,,,B5/B6,,,7v6[8:1],,7,4,,,7,,,B3/B2,,,1-5[8:1],,1,7,,,1b^6[8:1],,,,,,1/4^1b[8:1],,,4,,,4x/7^4q1[8:3],,,7,,,7x/8q5b[8:1],,,8,,,8x,,,,,,4-1[8:1]/8-5[8:1],,7,3,,,48,,,,,,6v8[8:1]/2v4[8:1],,1,5,,,6b/2bs6s2[2:1],,,,,,,,,,,,,,,,,,
{48}A6,D7,A7,D8,A8,D1,A1,D2,A2,D3,A3,D4,
{24}A4/D5f/A5,,,,,2,4,,3,6,,7,5,,8,1,,2,4,,3,6,,7x,E4/B4/E5/A4f/D4/D5,,,,,,E5/B5/E6/A5f/D5/D6/1b<6[16:3],,,,,,7h[16:3],,,,,,
{48}A8,D1,A1,D2,A2,D3,A3,D4,A4,D5,A5,D6,
{16}8b,,7h[16:1],,B4/B3,6,2x,6,B4/B3,6,5x,6,B4/B3,6,
{32}2x,,{16}6,5b,,
B2/B3,7,7,B6/B5,1,1,B2/B3,7,7,7,{48}A3,D3,A2,D2,A1,D1,A8,D8,A7,D7,A6,D6,
{24}A5/D5/A4,,,2h[16:1],,,
{16}B5/B6,3,7,3,B5/B6,3,4,3,B5/B6,
{32}3,,{16}7,3,
{32}A5/B5,,,,2,,,,A3/B3/7,,,,8,,,,
{12}D7/E7,E3/D3,D5/E5,A1/B1,A7/B7,A3/B3,
{16}5b,,B5/B6,4x,7,B3/B2,4x,1,B5/B6,4x,7,1,
2v4[8:1]/6v8[8:1],,37,,6b/2bs6s2[2:1],,,,,,,,,,,,
{48}A6,D7,A7,D8,A8,D1,A1,D2,A2,D3,A3,D4,
{24}A4/D5f/A5,,,{16}B4/B3,5x,2,B6/B7,5x,8,B4/B3,5x,2,8,4h[32:1],6h[16:1],1,1,1b/A5/B5,,7,7,7/A3/B3,,2,2,5pp6^1[4:1],5,3,3,,,,,4b-1[12:1],,4bqq4b[2:1],,E4/7h[16:1],,,,,,,,6h[16:1],,,,5/4b-7b[12:1],,3b/4pp4[2:1],,E5/2h[16:1],,,,,,,,1bh[16:1],,,,3bqq4[2:1]/5,,4/6b,,7>4pp4b[2:1],,,,,,,,,,,,2b,,7h[16:1]/B3/B4,,2b,,7h[16:1]/B3/B4,,2b,,7h[16:1]/B3/B4,,2b,,Ch[16:1]/B4/B8,,
,
&inote_6=(90)
{1}
,
{4}5h[4:1]/4h[4:1],,5h[4:1]/4h[4:1],,{8}B5/4h[4:1],B6,B7,,A6/4h[4:1],A7,A8,,
2/5h[4:1],,3,,6/4h[4:1],,5pp4[16:12],,4,3,2,,3,2,1h[4:1],,
{24},,2,4,,3,5,,,6,,5,7,,,3h[8:3],,4,4x,,5,,,6,
,,7h[8:1],,,5,6,,3h[8:1],,,5,4,,7,5,,6h[8:1],2,,5,3,,4,
{24}7x-5-3-5-7[2:3],,,,,,1-5[8:1],,,1,,,,,,,,,1-5[8:1],,,1,,,,,,,,,,,,,,,,,,,,,{48}A2f,D2,A1,D1,A8,D8,A8,D1,A1,D2,A2,D3,
{16}A3/6-2[8:1],,7,,{24}5,,4x,4,,,{16}6-2[8:1],,7,,5,,,,
{16}3-7[8:1],,2,,{24}4,,5x,5,,,{16}1-3-1[8:1]/6,,1/6-4-6[8:1],,,,,,
{16}1-5[8:1],,2,,{24}8,,7,7,,,1-5[8:1],,,2,,,{16}8,,7,,
1,,27,,6-4-6[16:2],,1-3-1[16:2],,6<1[8:1],,1p5[8:1],,6,,,,
{16}4-8[8:1],,3,,{24}54,,6,6,,,{16}5-1[8:1],,6,,45,,2,,8-4[8:1],,7,,{24}81,,2,2,,,{16}1-3-1[8:1],,7-5-7[8:1],,1,,7,,4-8[8:1],,,,46,,5,,4-8[8:1]/1,,,,4qq4[4:1]/2,,3,,4pp4[4:1]/7,,,,8z4b[8:1],,,,,,,,
{48}D3,A2,D2,A1,D1,A8,D8,A7,D7,A6,D6,A5,D5/8b,,,,,,
{16}2b/6bp3[2:1],,,2h,,,2h,,,2h,,,1h[8:1],,5b,,3b/7b,,
{32}6x,5,6,5,6b,5,6,5,6,5,6b,5,6,5,6b,5,6b-2[16:1],,{48}2bx,,,,,,,,,6b,,,,,,
{16}7b/3bq6[2:1],,,7h,,,7h,,,7h,,,8,,8-4[12:1],,
{32}2x,1x,8x,,7-3[12:1],,,,1x,8x,7x,,5h[4:1],,,,1x,8x,7x,6x,,4,3,2,1/8x,7x,6x,5x,
{4}4x/Ch[16:1],,4h[16:1]/5h[16:1],4q3>5[2:1]/5,
{2},
{32}8,7,6,5>2[8:1],2,1,8,7,{32}6xbv1[12:1],,,,5x,,,,
{20}6,,,,4,{24}6V42[8:1],,,75,,,{20}62,,,,3,{24}6-4-2-8[6:1],,,75,,,{40}6b/3,,,,,,,,3h[40:2],,
5,,,{24}6h[24:1],{120}4,,,,,,,,,,,{24}5,
{32}3,4,5,6,7,8,1,2,
3x>8[8:1]/E7,E8,E1,E2,E3,E4,E5,E6,
{24}E7/3,,,,,3,3-7[12:1]/5,,,2,,,37,,,,,3,3<6[12:1]/8,,,2,,,3-8[12:1],,,8-3[12:1],,,7-4-7[6:1],,,6,,,2x-5-2[6:1],,,1,,,8v7-5[6:1],,,8,,,
1b,,,,,
2,
4-1[16:1],,3,7-4[12:1],,8,4,,,7,,2,
2,,6,6,,,
5pp6<5[8:3]/4,,,,,,
{2},
{48}1x,2,3,5x,6,7,2x,3,4,6x,7,8,
{24}5xh[8:1]/1,,,,,7,
{24}5-8[16:1],,6,2-5[12:1],,{24}5,1,,,
2,,7,
7,,3,3,,,
{48}6b/A2,D2,A1,E1,B8,C,B3,,,,,,
{48}4bz8b[8:1]/A6,D7,A7,E8,B8,C,B5,,,,,,,,,,,,,,,,,,
{32}A5/2-4-2[8:1],B5,C,B1,A1,A8,E8,E7,A6/2,,,,5,,,,2V41[8:1]/8,,,,7,,,,26,,,,5,,,,2V48[8:1]/4,,,,5,,,,2/7-5-7-5-7b[4:1],,,,,,,,2-4-2-4b[16:3],,,,,,,,,,,,,,,,3x/7-5-7[8:1],2x,1x,8x,1x,2x,3x,4x,
,,,,4,,,,6V85[8:1]/4,,,,3,,,,62,,,,1,,,,6V84[8:1]/8,,,,1,,,,6/1-3-1-3-8[4:1],,,,,,,,8-4-8-4-7[4:1],,,,,,,,7,,,,,,,,6-2[12:1],,,,,,,,6/8-4-8b[8:1],,,,,,,,8/6-2[12:1],,,,7,,,,6/1-4-1b[8:1],,,,,,,,1/6-2[12:1],,,,7,,,,6/1pp2<3[16:6],,,,,,,,
{2},
{48}7,6,5,3,2,1,6,5,4,2,1,8,
{16}3/7x-3-7[6:1],,,,7/8-4b[12:1],,1,,8/2-6-2[6:1],,,,1-5b[12:1]/2,,8,,1-3[12:1]/7,7,7,7,6/1-7[12:1],6,6,6,5/1,5,5,5,
{32}8,1,2,3,
{48}4/2x,1x,8x,7x,6x,5x,4bx/8b,,,,,,
{16}7b/3bqq6[2:1],,,7h,,,7h,,,7h,,,8h[8:1],,4b,,2b/6bpp3[2:1],,,2h,,,2h,,,2h,,,1h[8:1],,5b,,3bqq6[2:1]/7bqq2[2:1],,,,,,,,,,,,,,8b-4[12:1],,{32}3x,2x,1x,8x,7b-3[12:1],,,,2x,1x,8x,7x,6b-2[12:1],,,,1xs5b[8:1],8x,7x,6x,5b,,,,,,,,
,
