&title=天天天国地獄国 (feat. ななひら & P丸様。)
&artist=Aiobahn +81; ななひら; P丸様。
&first=0
&des=chorser
&lv_5=13+
&inote_5=(70)
{4},
(140)
{1},
{1}4bqq4pp4[8:5],7bv4<5v2<7[8:5],6bxpp5b[4:2]/5bxqq5b[4:2],4bx-8<7v5>4b[8:5]/5bx-1>2v4<5b[8:5],
{4}5-8[8:1],4-1b[8:1],5-7[8:1],4-2b[8:1],5-8[8:1],4-1b[8:1],5-7[8:1],3b,
{128}2V84>3v2b[8:5],7qq5<7[8:5],,,,,,,{16},,,{4},,,
{16}38,,4/7h[8:1],,5,5,6,,,,
{8}4,6h[4:1],5,4,3,3h[4:1],4,5,6,6h[4:1],3,2V84[4:1],7,6-1[8:1],,6b,,,
{8}5,2h[4:1]/4,3,4,5,5/7h[4:1],6,5,4,21,3,4>2[8:1]/5,,6h[8:3]/4b,,,
{8}3,3h[4:1],4,5,6,6h[4:1],5,4,3,7V15[4:1],2,3-8[8:1],,3b,,,
{8}5,3h[4:1]/4,2,1,8,6h[4:1]/5,7,8,1,8h[8:1]/7,5,2h[4:1]/4-6[8:1],,4b,
{8},1/8<5b[8:1],7,2h[4:1]/8,,7<4b[8:1],6,7/1h[8:1],,23,8,56,8,2>5[8:1]/1,8,7h[8:1]/2b,,
{8}3h[8:1]/5,4,2h[8:1]/6,4,1h[8:1]/5,3,2-4b[8:1]/4,1,24,,5h[8:1]/6,8,7<4[8:1]/4,6,2h[8:1]/7b,
{8},8/1>4b[8:1],2,7h[4:1]/1,,2>5b[8:1],3,2/8h[8:1],,76,1,43,1,7<4[8:1]/8,1,2h[8:1]/7b,,
{1}1s5b[4:3],
{4}7bpp2<7b[4:3],,,3-5[8:1],A3f,
{8}8<3[4:1],4,3q8b[4:1],2,1,3,5-1[8:1],,
{8}7,6,5-1b[8:1]`2>4[8:1],,,,5-1[8:1]/8,,7,6,5-1b[8:1]`2>4[8:1],,,,5-1[8:1]/8,,7,6,5/2pp6b[4:1],,6,7,8,1,
{8}1V73[4:1],2,3>5b[4:1],4,5,,4v7[8:1],4,6,5,4v7b[8:1]`8>3[8:1],,,,
4v7[8:1]/8,,6,5,4v7b[8:1]`8>3[8:1],,,,4v7[8:1]/8,,6,5,4v7b[8:1]`8>3[8:1],,,,25,3,
{8}34,23,12,81,1/7p6[4:1],2,3,,1p3[16:3],,7/1<3b[4:1],,,4,2,1,
{8}1<3[4:1],,1p3b[16:3]/7,,,4,2,1,1<3[4:1],,51,7xqq4b[4:1],,4,2,8,
{8}16,7,38,2,7h[8:1]/4,3,2h[8:1]/5,6,
{8}8V26[4:1],,8>6b[3:1]/2,,,5,7,8,8>6[4:1],,8V26b[4:1]/2,,,5,7,8,
{8}47,6,2-7[8:1]/5,3,2b,
{8}5,5h[4:1],4,3,2,1h[4:1],3,4,5,6h[4:1],7,8V24b[16:3],5,6-1b[8:1],,6b,,,
{8}2,2h[4:1]/8,1,7,6,7h[4:1]/1,8,2,3,57,6,4/8-4b[8:1],,8b/3,,,
{8}4,3h[4:1],5,6,7,8h[4:1],6,5,4,1V75b[16:3],4,3-8b[8:1],,3b,,,8,
{8}2h[4:1]/1,3,4,5,7h[4:1]/8,6,5,4,5h[8:1]/6,8,4qq4b[8:3]*pp4b[8:3],,4bx,,,,
{4}8h[4:7]/2-7b[8:1],,6-3[8:1],,2-6b[8:1],,5-3[8:1],,
{24}5h[8:1]/2x,3,4,,,,7h[8:1]/1x,2,3,,,,6h[8:1]/8x,1,2,,,,
{8}37,,
{24}4h[8:1]/A7,A6,A5,,,,2h[8:1]/A8,A7,A6,,,,3h[8:1]/A1,A8,A7,,,,
{8}26,,
{4}5h[4:7]/3-6b[8:1],,7-2[8:1],,3-7b[8:1],,8-2[8:1],,
{24}5h[8:1]/1,2,3,,,,7h[8:1]/1,2,3,,,,4h[8:1]/A8,A7,A6,,,,2h[8:1]/A8,A7,A6,,,,
{32}2bx,E3,E4,A4,,,,,8x,E8,E7,A6,,,,,
{4}1bw5b[8:1],{16},Cf,,,
{16}48,,48,,6,5,7-5[8:1],,4V26b[4:1],,7-1[8:1],,4,,7,,,,15,,48,,6,4,5-8[8:1],,6,,75,,,,
{16}76,,67,,8,5,8<5[8:1],,7,,8pp2b[8:1]/4,,1,,86,,,,24,,15,,3,4,2v5[8:1],,1,,8h[8:1]/2,,,,
{16}74,,74,,3,3,6,,45,,8,,5/7qq6[16:3],,8,,7xq3b[8:1],,,,7x,,,,5/7h[8:1],,1,,2h[8:1]/4,,7,,
{16}48,,48,,6,5,8v5[8:1],,7,,81,,2-6b[8:1],,7,,1-5[8:1]/2b,,,,8-4b[8:1]/1b,,,,7/8b,,,,Cf/E3/E7/B7/B2/B3/B6/B4/B5/E5,,,,
{8}4-1[8:1]/5,2,41,,3/4-1b[8:1],6,4/7,7,8-5[8:1]/2,7,8-2b[8:1]`4>1[8:1],3,48,,38,38,1-6[8:1]/2,7,61,,8/1-6b[8:1],3,41,4,
{8}5-2[8:1],5,7,7,1v7[8:1]`2-6b[8:1],8,1b/2b,,
{8}5-8[8:1]/4,7,58,,6/5-8b[8:1],3,5/2,2,1-4[8:1]/7,2,1-7b[8:1]`5<8[8:1],6,51,,61,61,8-3[8:1]/7,2,38,,1/8-3b[8:1],6,58,5,
{8}4-7[8:1],4,2,2,8V64[8:1]`7<4b[8:1],1,8b/7b,,
{4}1>8[8:29],,,,8x-6[8:1]
,,7x-5b[8:1],,6x-4[8:1],,5x-3b[8:1],,4x-2[8:1],,3x-1b[8:1],,
{4}8<1[8:13],,,,8x-5[8:1],,5x-2b[8:1],,
{1}4bhx[4:5]/8bhx[4:5],
{4},,1-6[8:1]`5-2b[8:1],{16}1b/5b,Cf,,,
{16}3-5[8:1],,25,,3-1[8:1],,6,,3/7-3b[8:1],,6,8,7,,2,,
{16}1-7[8:1],,27,,1-3[8:1],,6,,1/6-2b[8:1],,7,4,6,,4,,
{16}13,,5,,68,,4,,2-8[8:1]/8,,37,,28,,6,,
{16}1-4[8:1],,8,8,1-5b[8:1],,7,,1/6<1b[8:1],,7,,46,,2,,
{16}3-8[8:1],,4,6,3qq4b[4:1],,5,,3/4>7[16:3],,5,,7,,6,,
{16}5-2[8:1],,7,7,5-8[8:1],,6,,5/1>3b[8:1],,2,,1b/7bx,6x,5x,,
{16}14,,3,,58,,6,,3h[8:1]/7,,5,,6h[8:1]/2,,4,,
{16}7/3-7>1-4[4:1],,4,6,3,,5,,,,2>4[8:1]/6,,1,,2<8b[8:1]/6,,
{16}8,,7/2,6,5,,34,,2/6-1[8:1],,7,4,6-4b[8:1],,4,,
{16}2-6[8:1]`6<1b[8:1],,1,,26,,,,15,,84,,7-2[8:1]`3-6b[8:1],,26,,
{16}7<5b[8:1]`3>1[8:1],,,,37,,,,3/4V62[4:1],,5,2,4V28b[16:3],,3,,
{16},,,,17,,2h[8:1]/6,,5,,7-5[8:1]/3,,8,,7/3-8b[8:1],,
{16}2
,,3/8,7,6,,52,,7/4>1[8:1],,8,8,4-6b[8:1],,7,,
{16}7-2[8:1]`4-1b[8:1],,8,,47,,,,84,,57,,6-8b[8:1]`3-8[8:1],,45,,
{16}6-1[8:1]`3-1b[8:1],,,,63,,,,48,,2,1,3,,27,,
{8}6h[8:1]/4b,2,6h[8:1]/4b,1,5h[8:1]/3b,1,5h[8:1]/3b,8,
{16}7-5b[8:1],,6,1,7-2[8:1],,2,,7/3-8[8:1],,4x,1x,3x,,7,,
{16}1-4b[8:1],,2,8,1-6[8:1],,6,,1/5-8[8:1],,7x,6x,5x/4-1b[8:1],,3,,
{16}4q8b[8:1]/7,,5,,4>1b[8:1]/8,,6,,7/4,,5,,2pp2b[4:1]/4,,5,,2<4[4:1]/6,,7,,8,,1,,
{24}2x,1x,8x,7x,6x,5x,4x/3,,,15,,,
{16}2-4b[8:1],,3,8,2-7[8:1],,7,,2/6-1[8:1],,5x,8x,6x,,2,,
{16}8-5b[8:1],,7,1,8-3[8:1],,3,,8/4-1[8:1],,2x,3x,4x/5,,6,,
{16}3,4,3,4,2,5,2,5,1,6,1,6,8,7,8,7,
{32}2,3,4,5,6,7,8,1,2,3,4,5,6,7,8,1,2/7bx,6bx,5bx,4bx,3bx,2bx,1bx,8bx,7bx,6bx,5bx,4bx,3bx,2bx,1bx,8bx,7bx<6v4[4:7]`4bxv1>2v7b[4:7],,
