&title=bass 2 bass
&artist=Ryu☆
&first=1.38
&des_5=心白 2 心白
&lv_5=13
&des=心白 2 心白
&inote_5=(140){4},{8},,,,,,4/3,
6/5,7/2,{16}4,5,4,5,{8}4,3/6,{16}2,7,
{8}1-4[8:1],6,7,8-5[8:1],,4,3,2,
1-3[8:1],5-7[8:1],1-5[8:1],5,{4}1>4[8:1]*<6[8:1],1,
{8}8-5[8:1],3,2,1-4[8:1],,5,6,7,
8-4[8:1],1-5[8:1],8,1<6[8:1],,3/1>4[8:1],,1/7,
8-5[8:1],3,2,1-4[8:1],,5,6,7,
8-6[8:1],4-2[8:1],8-4[8:1],4,{4}8<5[8:1]*>3[8:1],8,
{8}1-4[8:1],6,7,8-5[8:1],,4,3,2,
1h[8:7],4,5,6,7,8h[4:1],,,8/1,
7/2,{16}3,4,2,4,{8}3,2/7,{16}6,5,6,5,
{8}7,{16}1,8,,2/7,,,{8}3/6,{16}4,5,{8}3/6,1,
{16},,7,7,{8}5,6/4,2/8,3/5,7/1,{16}8,8,
1,7,2,6,3,5,4,6,3,7,2,8,{4}1,
{16}7,7,4,4,{8}6,1h,2h,{16}7,6,{4}5,
{16}4,4,6,6,3,3,7,7,2,2,8,8,1,7,{8}2,
8<5[8:1],2,{16}3/8,,,4,3,2,{8}1>4[8:1],7,6/1,
{4}8h[4:3],{8}5,4,3,2,{16},,,,1,
7,2,5,3,8,4,6,2,7,,1,,6,4,7,
2,5,,1,,7,{8}2,{16}1/8,2/7,{8}3/6,{4}1b/8b,
{8}2-5[8:1],6,7,8-4-7-5[8:3],,4,3,2,
1-3[8:1],8,1/7-5[8:1],8,{4}7/1-6[8:1]*-4[8:1],1,
{8}7-4[8:1],3,2,1-5-2-4[8:3],,5,6,7,
8,1-6[8:1]*-7[8:1],2,1-4[8:1]*-3[8:1],,1-5[8:1],,1,
2-5-1[4:1],6,7,8-4-7-5[8:3],,1,2,3,
4-2[8:1],5,4/6-8[8:1],5,{4}6/4-7[8:1]*-1[8:1],4,
{8}7-4-8[4:1],3,2,1-5-2-4[8:3],,8,7,6,
5h[8:7],4,3,2,1,8h[4:1],{16},,,,1,
1,,7,5,6,{8}4,7/3,{16}2,8,,,{8}1,
8/2,4/7,6/5,3/4,2/5,1/7,{16}2-5[8:1],8,1,7,
{8}2,{16}8,7,6,5,{8}4h[8:1]/2h[8:1],,4/2,5/3,4/6,
{16}7/B3/A3/E4,,,1/B5/A5/E6,,,{8}7/2,{16}1/8,2/7,{8}6/3,{4}1/8,
{16}2,2h[8:1],4,4h[8:1],3,3h[16:3],,,{8}6h[16:3],{16}5,5h[16:3],,7,{8}7h[8:1],
{16}8,1,2,3,7,6,{8}5,2-6[8:1]*-5[8:1],1/8,{4}2,
{16}7,7,5,6,4,5,3,4,2-5[8:1],4,,4,{8}2,{16}7,7,
3,6,4,5,3,6,2,7,1-5[8:1],8,,8,{4}1,
{8}7,4,{16}5,2,,E8/E2,,E7/E3,,E4/E6,,,{8}6/5,
3/4,7/2,{16}4,5h[16:7],,,,,,,{4}1>8<1b[1:4],
{1}E1f/A8/B8/D1/A1/B1/B5/B4/E5/A5/D5/A4,
,,,{8},{16}8,
1,7,2,6,3,{8}E6,B6,B7,E8,
E4,B3,B2,E2,A5/A4,A3/A6,A7/A2,A1/A8,
,B7/B6,{4}B2/B3,{16}7,8,{8}7,{16}2,1,{8}2,
{16},,4,5,{8}4,{16}E8,E2,E7,E3,E6,E4,{8}E5,4x/5xh[8:9],
,3bxh[8:1],,1bxh[8:1],,7bxh[8:1],,7bx,
7-3[8:1],5-1V75-3[8:3],7,5,,2,1,8,
7-3[8:1],5-1[8:1],7,5,{4}2V46[8:1]*V86[8:1],2,
{8}7-3[8:1],1-5V71-3[8:3],7,1,,4,5,6,
7-3[12:1],1-5[8:1],7,1V35[8:1]*-7[8:1],,1,,6,
5b-1[8:1],7-3V17-5[8:3],5,7,,4,3,2,
1b/7b,5b/3b,8b/2b,4b/6b,{4}1b-5[8:1]/7b-3[8:1],1/7,
{8}4b-8[8:1],2-6V82-4[8:3],4,2,,5,6,7,
8b-6[12:1],8-2[12:1],8-5[12:1],8-3[12:1],{2}8-4[12:1],
{1}Cf/8bw4[1:3],
E
