&title=glow in the darkness
&artist=『南十字星恋歌』オープニング
&first=0.014
&des=Tane
&lv_1=3
&lv_2=4
&lv_3=5
&lv_4=9
&lv_5=13
&lv_6=13+
&inote_1=(145){1},,
{4}5,,,,{4},,,,{4},,,,{4},,,,
{4}4,,,,{4},,,,{4},,,,{4},,,,
{4}5,,,,{4},,,,{4},,,,{4}1h[2:1]/8h[2:1],,,,
{4}4,,,,{4},,,,{4},,{4},,{1}1/8,
{8}4b/5b,,,,
,,,,{1},
{8}8h[8:7],,,,
,,,,{4},,,,
{8}1/8,,,,
,,,,{1},
{8}5h[8:7],,,,
,,,,{4},,,,
{8}5/4,,,,
,,,,{1},
{8}1h[8:7],,,,
,,,,{4},,,,
{8}8/1,,,,
,,,,{1},
{8}4h[8:7],,,,
,,,,{4},,,,
{1}4h[1:1],,
{1}5h[1:1],,
{1}3h[1:1],,
{1}6h[1:1],,
{4}1,,,,
{4}8,,,,
{4}2,,,,
{4}7,,,,
{4}4,,,,
{4}5,,,,
{4}3,,,,
{4}6,,,,
{1}1h[1:1],,
{1}4h[1:1],,
{1}4h[1:1],,
{1}1h[1:1],,
{2}4b,,
{2}8-4[1:1],,,,
{1}8p5[2:3],,
{4}1,,,,
{4}3,,,,
{4}8,,,,
{4}56,,,,
{4}5,,,,
{4}7,,,,
{4}4,,,,
{4}12,,,,
{4}1,,,,
{4}3,,,,
{4}8,,,,
{4}56,,,,
{4}5,,,,
{4}7,,,,
{4}4,,,,
{4}12,,,,
{1}1,,
{1}8,,
{1}2,,
{12},{1}7,,
{1},,,,,,,,
&inote_2=(145){1},,
{4}5,,,,{4},,,,{4}7,,,,{4},,,,
{4}4,,,,{4},,,,{4}2,,,,{4},,,,
{4}5,,,,{4}6,,,,{4}7,,,,{4}1h[2:1]/8h[2:1],,,,
{4}4,,,,{4}3,,,,{4}27,,{4},,{1}1/8,
{8}4b/5b,,,,
,,,36,{1},
{8}8h[8:7],,,,
,,,,{4},,4,,
{8}1/8,,,,
,,,27,{1},
{8}5h[8:7],,,,
,,,,{4},,1,,
{8}5/4,,,,
,,,63,{1},
{8}1h[8:7],,,,
,,,,{4},,5,,
{8}8/1,,,,
,,,72,{1},
{8}4h[8:7],,,,
,,,,{4},,8,,
{1}4h[1:1],,
{1}5h[1:1],,
{1}3h[1:1],,
{1}6h[1:1],,
{4}1,,1,,
{4}8,,8,,
{4}2,,2,,
{4}7,,7,,
{4}4,,4,,
{4}5,,5,,
{4}3,,3,,
{4}6,,6,,
{2}1h[2:1],,
{2}2h[2:1],,
{2}4h[2:1],,
{2}3h[2:1],,
{2}4h[2:1],,
{2}2h[2:1],,
{2}1h[2:1],,
{4}34,,56,,
{2}4b,,
{4}8-4[2:1],,,,
{4}1-5[2:1],,,,
{1}8p5[4:3],
{1}4-1[2:1],
{4}1,,2,,
{4}3,,45,,
{4}8,,7,,
{4}56,,34,,
{4}5,,6,,
{4}7,,81,,
{4}4,,3,,
{4}12,,78,,
{4}1,,7,,
{4}3,,45,,
{4}8,,2,,
{4}56,,34,,
{4}5,,3,,
{4}7,,81,,
{4}4,,6,,
{4}12,,78,,
{1}1h[1:1],,
{1}8h[1:1],,
{1}2h[1:1],,
{12},{1}7h[8:9],,
{1},,,,,,,,
&inote_3=(145){1},,
{4}5,,,,{4}6,,,,{4}7,,,,{4}8h[2:1],,,,
{4}4,,,,{4}3,,,,{4}2,,,,{4}1h[2:1],,,,
{4}5,,4,,{4}6,,3,,{4}7,,2,,{4}1h[2:1]/8h[2:1],,,,
{4}4,,5,,{4}3,,6,,{4}27,,{4}18,,{1}1-4[8:5]/8-5[8:5],
{8}4b/5b,,,,
,,,36,{1},
{8}8h[8:7],,,,
,,,,{4},4,4,4,
{8}1/8,,,,
,,,27,{1},
{8}5h[8:7],,,,
,,,,{4},1,1,1,
{8}5/4,,,,
,,,63,{1},
{8}1h[8:7],,,,
,,,,{4},5,5,5,
{8}8/1,,,,
,,,72,{1},
{8}4h[8:7],,,,
,,,,{4},8,8,8,
{1}4h[1:1],,
{1}5h[1:1],,
{1}3h[1:1],,
{1}6h[1:1],,
{4}1,1,1,,
{4}8,8,8,,
{4}2,2,2,,
{4}7,7,7,,
{4}4,4,4,,
{4}5,5,5,,
{4}3,3,3,,
{4}6,6,6,,
{2}1h[4:1],8h[4:1],
{2}2h[4:1],7h[4:1],
{2}4h[4:1],5h[4:1],
{2}3h[4:1],6h[4:1],
{2}4h[4:1],6h[4:1],
{2}2h[4:1],8h[4:1],
{2}1h[4:1],7h[4:1],
{4}3,4,5,6,
{2}4b,26,
{4}8-4[2:1],,,,
{4}1-5[2:1],,,,
{1}8p5[4:3],
{1}4-1[2:1],
{4}1,1,2,2,
{4}3,3,45,,
{4}8,8,7,7,
{4}56,,34,,
{4}5,5,6,6,
{4}7,7,81,,
{4}4,4,3,3,
{4}12,,78,,
{4}1,1,7,7,
{4}3,3,45,,
{4}8,8,2,2,
{4}56,,34,,
{4}5,5,3,3,
{4}7,7,81,,
{4}4,4,6,6,
{4}12,,78,,
{1}1h[1:1],,
{1}8h[1:1],,
{1}2h[1:1],,
{12},{1}7h[8:9],,
{1},,,,,,,,
&inote_4=(145){1},,
{4}4h[2:7],,,,{4}5,,,,{4}6,,,,{4}7,,8,,
{4}5h[2:7],,,,{4}4,,,,{4}3,,,,{4}3,2,1,,
{4}5,5,5,5,{4}4,4,4,4,{4}6,6,3,3,{4}2h[4:1]/7h[4:1],,1h[4:1]/8h[4:1],,
{4}4,4,5,5,{4}3,3,6,6,{4}27,27,{4}18,18,{8}18,27,36,45,{8}45,36,27,18,
{8}1b,,,,
7,7h[4:1],,5^2[2:1],{1},
{8}8^5[8:3],,,,
1,1,,2h[8:3],{4},4,3,5,
{8}8b,,,,
2,2h[4:1],,4^7[2:1],{1},
{8}1^4[8:3],,,,
8,8,,7h[8:3],{4},5,6,4,
{8}4b,,,,
6,6h[4:1],,8^3[2:1],{1},
{8}5^8[8:3],,,,
4,4,,3h[8:3],{4},1,2,8,
{8}5b,,,,
3,3h[4:1],,1^6[2:1],{1},
{8}4^1[8:3],,,,
5,5,,6h[8:3],{4},8,7,1,
{8}5<3[4:6],,,,
,,,,{4},,,,
{4}2q5[4:6],,,,{4},,,,
{4}6pp2[4:6],,,,{4},,,,
{4}1>7[4:6],,,,{4},,,,
{8}1h[4:1],,2h[4:1],,
3h[4:1],,4,4,
{8}3h[4:1],,2h[4:1],,
1h[4:1],,8,,
{8}8h[4:1],,7h[4:1],,
6h[4:1],,5,5,
{8}6h[4:1],,7h[4:1],,
8h[4:1],,1,,
{8}4h[4:1],,3h[4:1],,
2h[4:1],,1,1,
{8}2h[4:1],,3h[4:1],,
4h[4:1],,5,,
{8}5h[4:1],,6h[4:1],,
7h[4:1],,8,8,
{8}1,1,27,27,
36,36,45,,
{8}8-4[8:1],,,,
4-8[8:1],,,,
{8}1-5[8:1],,,,
5-1[8:1],,,,
{8}7^4[8:1],,,,
4-8[8:1],,,,
{8}2^5[8:1],,,,
5-1[8:1],,,,
{8}8^5[8:1],,,,
5-1[8:1],,,,
{8}1^4[8:1],,,,
4-8[8:1],,,,
{4}1^4[8:1],,5^8[8:1],,
{4}1-4[8:1],8-5[8:1],1-4[8:1],8-5[8:1],
{8}4b,,,,
45,,36,,
{8}27,,,,
1>8[2:1],,,,
{8},,,,
8p5[1:1],,,,
{1},
{1}4-1[2:1],
{8}45,,18,,
27,,3,4,
{8}3^5[8:1],,,,
6^4[8:1],,,,
{8}34,,16,,
7,8,7,8,
{8}7^4[8:1],,,,
8^3[8:1],,,,
{8}47,,56,,
16,,34,,
{8}4-2[8:1]/5,,,,
4/5-7[8:1],,,,
{8}12,,38,,
78,,25,,
{8}3-8[8:1],,4-7[8:1],,
2,,,,
{8}54,,81,,
72,,6,5,
{8}6^4[8:1],,,,
3^5[8:1],,,,
{8}65,,83,,
2,1,2,1,
{8}2^5[8:1],,,,
1^6[8:1],,,,
{8}52,,43,,
83,,65,,
{8}5-7[8:1]/4,,,,
5/4-2[8:1],,,,
{8}87,,61,,
21,,74,,
{8}18,18,27,27,
36,36,45,45,
{4}6p4[4:6],,,,{4},,,,{4}2q5[4:6],,,,{4},,,,
{4}8qq4[4:6],,,,{4},,,,{12},{4}1>7[1:3],,,,{8},{4},,,,
{1},,,,,,,,
&inote_5=(145){1},,
{4}4h[1:1],,,,{4}3h[1:1],,,,{4}2h[1:1],,,,{4}1h[2:1],,{8}8,,,5,
{4}5h[1:1],,,,{4}6h[1:1],,,,{4}7h[1:1],,,,{4}8h[4:1],1h[4:1],2,,
{4}4h[4:3]/5,5,5,5,{4}3h[4:3]/5,5,5,5,{4}2h[4:3]/5,5,5,5,{4}1h[4:1]/5,5,{8}8h[4:1]/5,,5,5,
{4}5h[4:3]/4,4,4,4,{4}6h[4:3]/4,4,4,4,{4}7h[4:1]/4,4,{8}48,48,37,37,{8}26,26,15,15,{16}1,6,4,8,
2,5,3,7,
{8}1b<2[4:6],,,,
1,1,,8,{4},6h[8:1],7h[8:1],8,
{8}8<3[4:3],,,,
2,2,,1>6[8:3],{4},6^1[4:1],1^4[4:1],4,
{8}8b>7[4:6],,,,
8,8,,1,{4},3h[8:1],2h[8:1],1,
{8}4>7[4:3],,,,
6,6,6,5<2[8:3],{4},2^5[4:1],5^8[4:1],8,
{8}2-6[8:1],,12,,
8,8-4[8:1],,1<5[8:3]/8,{8},,5>8[8:3],,
8,8,7,,
{8}7>6[4:6],,,,
3,2,,8h[4:1],{4},1h[8:1],2h[8:1],3h[8:1],
{8}7-3[8:1],,87,,
1,1-5[8:1],,8>4[8:3]/1,{8},,4<8[16:5],,
1,1,2,,
{8}3h[4:1]/4h[4:1],,,,
4,2,8,6,
{4}5h[4:1],4h[4:1],3h[4:1],1,
{8}5<3[4:6],,,,
,,,4,{4}4,,,,
{4}2q5[4:6],,,,{4}8,,{8},,,6,
{4}6pp2[4:6],,,,{4}4,,{8},,,1,
{4}1>7[4:6],,,,{4}8,,{8},,,8,
{8}8-4[8:1],,1h[4:1]/8,,
4^7[8:1],3,4,,
{8}2h[4:1],,8h[4:1],,
7h[4:1],,6,6,
{8}1-5[8:1],,8h[4:1]/1,,
5^2[8:1],6,5,,
{8}7h[4:1],,1h[4:1],,
2h[4:1],,3,3,
{8}5^8[8:1],,4h[4:1]/5,,
8-4[8:1],1,8,,
{8}1h[4:1],,2h[4:1],,
3h[4:1],,6,6,
{8}4^1[8:1],,5/4,,
1,1,8,8,
{8}18,18,27,27,
{16}8,2,6,4,
7,1,5,3,
{8}8-4[8:1],,8/1h[8:2],,
4-8[8:1],3h[8:3],4,,
{8}1-5[8:1],,1/8h[8:2],,
5-1[8:1],6h[8:3],5,,
{8}7-3[8:1],,7/1h[8:2],,
2-5[8:1],8h[8:3],2,,
{8}2-6[8:1],,2/8h[8:2],,
7-4[8:1],1h[8:3],7,,
{8}8-5[8:1],,8/6h[8:2],,
5-8[8:1],4h[8:3],5,,
{8}1-4[8:1],,1/3h[8:2],,
4-1[8:1],5h[8:3],4,,
{4}7^4[8:1],,1^4[8:1],,
{4}5-8[8:1],4-1[8:1],5-8[8:1],4-1[8:1],
{8}5^8[8:1],,,4h[8:5],
1,3,7,2,
{8}5h[2:1],,,2,
1^4[4:1],,6,7,
{8}8,,,,
8h[4:1],,4,3,
{16}2,,,,
,,15,26,
37,,,,
,,7,,
{16}1,5,3,7,
4,8,2,6,
4,5,3,6,
2,7,1,,
{8}8h[8:1]/1-5[8:1],,7/1,8h[8:1],
5^2[8:1],7,8/5,1,
{8}2h[2:1]/8^5[8:1],,8,,
5^8[8:1],3,2/5,1,
{8}8h[8:1]/2-5[8:1],,7/2,6h[8:1],
5-1[8:1],4,3/5,2,
{8}1h[4:1]/8^5[8:1],,8,2,
3h[4:1]/4^7[8:1],,4,,
{8}1h[8:1]/8-4[8:1],,2/8,1h[8:1],
4^7[8:1],2,1/4,8,
{8}7h[2:1]/1^4[8:1],,1,,
4^1[8:1],6,7/4,8,
{8}1h[8:1]/7-4[8:1],,2/7,1h[8:1],
4-8[8:1],2,1/4,2,
{8}8-3[8:1]/3^8[8:1],,8<3[4:1],,
,,,,
{8}8h[8:1]/1-5[8:1],,7/1,6h[8:1],
5-8[8:1],4,3/5,2,
{8}1h[2:1]/8-4[8:1],,8,,
4-1[8:1],3,4/5,6,
{8}7h[8:1]/1-4[8:1],,1/6,5h[8:1],
4-8[8:1],3,2/4,1,
{8}8h[4:1]/7^4[8:1],,7,1,
1h[4:1]/2q6[8:1],,2,,
{8}1h[8:1]/8-4[8:1],,2/8,3h[8:1],
4-1[8:1],5,6/4,7,
{8}8h[2:1]/1-5[8:1],,1,,
5-8[8:1],6,5/4,3,
{8}1^3[8:1]/8,2,1/7^5[8:1],6,
7/2^4[8:1],3,26,5,
{8}45,45,36,36,
27,27,{16}7,3,5,1,
{4}6p4[4:6],,,,{4}1p5[2:1],,,,{4}2q5[4:6],,,,{4}6q4[2:1],,,,
{4}8qq4[4:6],,,,{4}2V83[2:1],,,,{12},{4}1>7[1:3],,,,{8},{4}8q8[8:15],,,,
{1},,,,,,,,
&inote_6=(145){1},,
{8}1-4[4:3],,,,
,,,,
8-5[4:3],,,,
,,,,
1-4[4:3],,,,
,,,,
Chf[4:2],,,,
,,,,
3q5[4:3],,A4,,
A5,,,,
6p4[4:3],,A5,,
A4,,,,
1q8[4:3],,C,,
E5,,,,
E6,,E4,,
Ch[4:1],,,,
{8}1-4[4:2]/8,,8,,
7,,7,,
46,,46,,
53,,35,,
4,,4,,
35,,35,,
2<5[4:1]/6,,,,
1,,17,17,
2/8-5[4:2],,2,,
3,,3,,
4h[4:1]/6h[4:1],,,,
5h[4:1]/3h[4:1],,,,
18,,18,,
2,2,7,7,
36,36,45,45,
{16}4,5,4,5,
4,5,4,5,
{8}3b-6[8:1],,7,,
7,8-4[8:1],,2,
3-6[8:1],,7,,
8-4[8:1],1,8,,
1-5[8:1],,18,,
2,1-5[8:1]/8,,1,
6-1[8:1],,4-1[8:1],,
5-1[8:1],,,,
6b-3[8:1],,2,,
2,1-5[8:1],,7,
6-3[8:1],,2,,
1-5[8:1],8,1,,
8-4[8:1],,81,,
5-8[8:1],4,3,,
2-5[4:1],,5-8[4:1],,
1,,,,
{8}2-5[8:1],,28,,
2-5[8:1],1,28,7,
2-5[8:1],,21,,
2-5[8:1]/6,8,12,,
5-2[8:1],,56,,
5-2[8:1],47,,7,
8-4[8:1],1,8,3,
2-5[8:1],1,2,,
7-4[8:1],,71,,
7-4[8:1],8,71,2,
7-4[8:1],,78,,
7-4[8:1]/3,1,87,,
4-7[8:1],,43,,
4-7[8:1],53,2,1,
1>5[4:1],,5<1[4:1],,
1,,C,,
{8}8b,C,,C,
,C,,C,
7,C,,C,
,C,,C,
6,C,,C,
,C,,C,
5,C,,C,
,C,,C,
4,C,,C,
,C,,C,
5,C,,C,
,C,,C,
6,C,,C,
,C,,C,
7,C,,C,
,C,,C,
{8}1-5[8:1],,6h[4:1],,
5-2[8:1],6,5,7,
8-5[8:1],,2-5[8:1],,
1-5[8:1],,3,2,
1-5[8:1],5,1-4[8:1],6,
,,7-4[8:1],1,
7/8-4[8:1],,7-4[8:1],,
1-4[8:1],,8,8,
5-2-4-8[8:4],,6,,
7,,6,,
5-1-3-7[8:4],,4,,
4,,2,,
1-5[8:1],1,8-6[8:1],8,
4-2[8:1],4,5,5,
45,45,36,36,
{16}4,5,4,5,
{24}4,3,2,1,8,7,
{8}5b<3[4:1],,4,,
5-1[8:1],6,7,,
5<3[4:1],,4,,
5-1[8:1],6,7,,
5p7[4:1],,4,3,
2^4[8:1],,6,,5p7[4:1],,4,3,
2^4[8:1],,6,,
4>6[4:1],,5,,
4-8[8:1],3,2,,
4>6[4:1],,5,,
4-8[8:1],3,2,,
1-5[8:1],,,,
5-1[8:1],,,,
1-5[8:1],,1-4[8:1]/6,,
1<6[8:1]/8,,,,
{8}3h[4:1]/4q5[4:1],,,,
3,2,6-3[8:1],7,
63,,2,,
1h[8:1]/8-4-2[4:1],,7,6,
5-7[8:1],,45,,
4-1[8:1],,4/5h[4:4],,
Ch[4:3],,,,
,,,,
18,18,27,{16}1,8,
{16}4,5,3,6,
4,5,2,7,
{8}4b-8[8:1],,43,,
4-7[8:1],3,24,3,
6/4-7[8:1],3,24,3,
6/4-7[8:1],3,24,1,
8^3[8:1]/5^8[8:1],,58,,
4^1[8:1]/1^6[8:1],,14,,
1V35[8:1]/4V68[8:1],,14,,
8V64[8:1]/5V31[8:1],,85,,
5-1[8:1],,56,,
5-2[8:1],6,75,6,
3/5-2[8:1],6,75,6,
3/5-2[8:1],6,75,8,
1-5-7[8:1],2,3,4,
5-1-3[8:1],6,7,8,
1b^4[8:1]*^6[8:1],,1bw5[8:1],,
Cf,,,,
{8}4-8-6[16:3]/5,3,42,3,
4-8-2[16:3],5,46,5,
4-8-6[16:3],3,24,3,
4-8-2[16:3],5,46,7,
8-6[8:1],5,8-5[8:1],4,
8-4-2[16:3],3,,,
1-5[8:1],8,1q4[4:1]*<5[4:1],8,
,,,,
{8}5-1-3[16:3]/4,6,57,6,
5-1-7[16:3],4,53,4,
5-1-3[16:3],6,75,6,
5-1-7[16:3],4,53,2,
2V48[16:2],2,7V58[16:2],7,
1V38[16:2],2,6V48[16:2],7,
3V51[8:1],2,7V58[8:1],6,
2V41[16:2],3,7V51[16:2],8,
{8}2b,,,,
,,,,
6h[4:4],,,,
,,,,
1h[4:4],E4,E5,E6,
,,,,
7h[4:2],E6,E5,E4,
2h[4:2],E2,E1,E8,
6h[4:4],E6,E5,E4,
,,,,
{32},1h[4:3],,,,E4,,,,E5,,,,E6,,,,
E7,,,,,,,,,,,,,,,,,
{32}1,,,,,,,,E6,,,,,E7,,,{64},{32}
,E4,,,,E3,,,,,B5,,,,,B7,,
,,,E1,,,,,,,,,,E2,,,,,
E3,,,,,{128}E4,E5,,,,,,,,,,,
