&title=おべんきょうたいむ
&artist=litmus* feat. 足立レイ
&first=0
&des=Tzddxg
&des_5=Tzddxg
&lv_5=14
&inote_5=(165){8},
{4}2b/B6/B7/E7,{16}3,4,3,4,3hbx[8:1],,,2hbx[8:1]/5hbx[8:1],,,{8}1b/6b,,78,12,,{16}2hb[8:1]/7hb[8:1],,,4hb[8:1]/6hb[8:1],,,{8}3b/5b,3-8<7[4:1]/5,,7-4[4:1]*-4[4:1],,4-2-8[4:1]b,,8<4[4:1]b,,4b,,8v6-4[4:1]*v2-4[4:1],{2},
{8},1b/7b,2,17,6,3/5h[8:1],{16}2,2,{8},36,{16}4,5,4,5,3,5,2,5,1hx[8:1],,,2hx[8:1]/8hx[8:1],,,37,,4x,5,4,5,3x,5,4,5,2x,6,4,6,1x,7,1,7,2,8,3,7,4,5,2,6,{2}1-4[8:1]*-6[8:1],{8}28,3,28,7,4h[8:1]/6,{16}7,7,{8},36,{16}5,4,5,4,6,4,7,4,8hx[8:1],,,1hx[8:1]/7hx[8:1],,,26,,5,4,6,2,8,1,7,3,6b,4,6,3b,5,2,{4}7b>3v5[2:1]b,,,{8},{4}2b/8b,
4h[16:3]/6h[8:1],3h[8:1]/5h[8:1],4h[8:1]/6h[8:1],3h[8:1]/5h[8:1],1h[16:3]/7h[8:1],2h[8:1]/8h[8:1],1h[8:1]/7h[8:1],2h[8:1]/8h[8:1],4h[16:3]/6h[8:1],2h[8:1]/8h[8:1],3h[8:1]/5h[8:1],1h[8:1]/7h[8:1],{8}17,6,17,3,28,7,28,3,{4}7-5-3[8:1],8v2[8:1],7-5-3[8:1],8,1-5[6:1],5-1[6:1],1-5[6:1],5,6q3[6:1],3p6[6:1],6q3[6:1],3,{8}1x,1,28,7,{2}1-4[8:1]/8-5[8:1],
{16}6h[8:1],,3,3,5h[8:1],,2,2,5,,46,,28,,3,4,3h[8:1],,6,6,4h[8:1],,7,7,4,,35,,17,,8,1,8h[8:1],,3,4,3h[8:1],,6,5,{8}7,48,37,{16}2,6,3,5,4,6,3,7,2,8,{4}1-4[8:1],1b,{16}7h[8:1],,2,2,8h[8:1],,3,3,8,,27,,36,,4,5,3,6,3,6,2,7,1,8,2x,,2x/8x,,3x/6x,,5,5,3,,17,,2,5,3,6,4h[8:1],,7,7,2,8,1,7,{4}2bx-4[8:1]b,2b/7b-5[8:1]b,7b/8b-4[8:1]b,8b,
{16}7x,,1x,8x,1x,8x,1x,8x,{32}1bx,2x,3x,4x,{8},6h[8:1],{32}1b,2x,3x,4x,{8},7h[8:1],{32}2b,3x,4x,5x,{8},8h[8:1],{32}2b,3x,4x,5x,{8},8,2,{16}8,1,8,1,8,1,{32}8bx,7x,6x,5x,{8},3h[8:1],{32}8b,7x,6x,5x,{8},2h[8:1],{32}7b,6x,5x,4x,{8},1h[8:1],{32}7b,6x,5x,4x,{8},1,7,{16}2,8,2,8,2,8,{32}2bx,3x,4x,5x,{8},1x,{32}1h[8:1]/7b,6x,5x,4x,{8},8x,{32}2b/8h[8:1],3x,4x,5x,{8},1x,{32}1h[8:1]/7b,6x,5x,4x,{8},8x,{1}4xbv2<6[8:3]b,{4}2b/B6/E6/E7/A6f,8b/B4/E4/E5/A4f,{2}B1/E1/E2/A1f/5bw1[8:1],
{8}4bx-1[8:1]/6bx,37,4/8-4[8:1],7,28,1,27,36,{16}4,5,3,6,2,8,3,7,1-4[8:1],8,2,7,{4}1,{8}3/5-8[8:1],26,1-5[8:1]/5,2,17,8,27,36,{16}4,5,4,5,3,6,2,7,1,8,1,8,{8}2,2,1x-4[8:1]/7x,26,1/5-1[8:1],6,35,4,36,27,{16}1,8,2,7,3,5,2,6,4-1[8:1],5,3,6,{4}4,7-3[8:1]*q4[8:1],7,2xv5[8:1]/6xv1[8:1],26,{8}28,37,46,17,{4}3v8[8:1]/5v8[8:1],A3/A5,
{8}1bx-4[8:1]/7bx,26,1/7-5[8:1],8-4[8:1],7x,8x,7,18,{16}2,7,4,5,3,6,2,8,1-4[8:1],7,2,6,{4}1,{8}2/8x-5[8:1],37,2-4[8:1]/8,1-5[8:1],2x,1x,2,17,{16}2,6,2,6,3,5,3,5,4,4,4,4,{8}4x,4x,{8}3x/5x-8[8:1],26,3-1[8:1]/5,4-8[8:1],3x,4x,3,45,{16}3,6,1,8,2,7,3,5,4-1[8:1],6,3,7,{4}4,{8}28,37,{16}6,4,{8}5,35,26,17,,18,27,36,45,2x/7x,4x/6,1x/8,2/6x,
{1}1b/7b<3-1<7-5>2-8<6-4>1-7<5-3>8-5>3-1[4:25],,,,,,,{4}48,37,26,15,{32}1bx/5bx,2x/6x,3x/7x,4x/8x,5,6,7,8,1,2,3,4,5,6,7,8,1,2,3,4,5,6,7,8,1,2,3,4,5,6,7,8,1,2,3,4,5,6,7,8,1,2,3,4,5,6,7,8,1,2,3,4,5,6,7,8,1,2,3,4,5,6,7,8,{16}1x,2x,3x,4x,5x,6x,7x,8x,1x/5x,4x,3x,2x,1x,8x,7x,6x,15,2,3,4,58,7,6,5,1x-5[8:1]/4,1x,1x,1x,{4}1bx,
{16}2>5[8:1]/8,,,1,2,,6,,17,,3,4,,6,5,,47,,3-1[8:1],6,4,5,3,,7,,7,8,,2,1,,1x,8x,2x,7x,1,8,2,7,4,5,3,7,1,6,2,7,{24}1,2,3,4,5,6,7,8,1,2,3,4,5,6,7,8,1,2,{4}3bx/7b,
{8}4b/6b,{16}3,5,3,5,3,,47,,6,5,,3,4,,1,8,2,6,1,7,3h[8:1],,8,,2,1,,7,8,,36,,4,5,3,6,2h[8:1],,7,,7,8,,2,1,,E7,B7,B8,E1,E6,B5,B4,E4,8-5[8:1]b,8,8,8,{4}8bx,
{8}1/7-4[8:1],{16},1,{8}7,2,36,{16}6,4h[8:1],,5,3h[8:1],,5,,2,6,3,5,4,,37,,2,7h[8:1],,1,6h[8:1],,3x,5x,4x,6x,3x,5x,4x,6x,2,5,1,7,2,8,3,6,{24}1,2,3,4,5,6,7,8,1,2,3,4,5,6,7,8,1,2,{4}3bx/7b,
{1}6-8-3[1:1],3x-1-6[2:1]*-6[2:1],1-4[1:1],4x-1[2:1]*-6-1[2:1],3v6-3[2:1]/7h[4:3],4h[4:3]/8-6-2-8[2:1],{4}1-4[8:1]*-6[8:1],,28,37,{16}4,6,4,6,3,7,2,8,1,1,1,1,{8}1,
,2b-6[8:1]/8b,37,2>5[8:1]/6,{16}7,7,{8}2,8,17,26,{16}3,5,3,5,2,6,1,7,2-5[8:1],8,3,6,{8}2,,1/7-4[8:1],28,1-5[8:1]/7,2,13,4,36,17,{16}2,6,2,6,3,5,3,5,4,4,4,4,4,4,{8}4,1x/7x-3[8:1],26,3/7<4[8:1],{16}2,2,{8}7,1,28,37,{16}4,6,4,6,2,8,3,7,2>5[8:1],6,1,7,{8}2,,17,26,{16}3,5,{8}4,28,37,46,,28,37,16,25,1x/7x,3x/4x,6x/8x,2x/8x,{1}1-3-8-4-7-5-3-1-7-2-6-3-5[2:7]/7,,,,
{8}17,6,28,3,46,{16}3,5,{8},26,{16}1,7,3,6,4,5,2,7,1h[8:1],,8,2,{8},37,{16}4,6,3,7,1,8,2,6,3hbx[8:1]/B7/B8,,,5hbx[8:1]/B2/E2,,,{4}4bx>5[2:1]b/E1/B8,,,{8},2b/8b,,{16}1>8[2:3]b,1,1,1,1b,E
